  0
SECTION
  2
HEADER
  9
$ACADVER
  1
AC1015
  9
$ACADMAINTVER
 70
     6
  9
$DWGCODEPAGE
  3
ANSI_1252
  9
$INSBASE
 10
0.0
 20
0.0
 30
0.0
  9
$EXTMIN
 10
-284.7009496127727
 20
-0.0000000000008226
 30
0.0
  9
$EXTMAX
 10
778.4211629466327
 20
1062.518408917975
 30
0.0
  9
$LIMMIN
 10
0.0
 20
0.0
  9
$LIMMAX
 10
420.0
 20
297.0
  9
$ORTHOMODE
 70
     0
  9
$REGENMODE
 70
     1
  9
$FILLMODE
 70
     1
  9
$QTEXTMODE
 70
     0
  9
$MIRRTEXT
 70
     0
  9
$LTSCALE
 40
1.0
  9
$ATTMODE
 70
     1
  9
$TEXTSIZE
 40
115.138368377898
  9
$TRACEWID
 40
1.0
  9
$TEXTSTYLE
  7
Standard
  9
$CLAYER
  8
0
  9
$CELTYPE
  6
ByLayer
  9
$CECOLOR
 62
   256
  9
$CELTSCALE
 40
1.0
  9
$DISPSILH
 70
     0
  9
$DIMSCALE
 40
1.0
  9
$DIMASZ
 40
2.5
  9
$DIMEXO
 40
0.625
  9
$DIMDLI
 40
3.75
  9
$DIMRND
 40
0.0
  9
$DIMDLE
 40
0.0
  9
$DIMEXE
 40
1.25
  9
$DIMTP
 40
0.0
  9
$DIMTM
 40
0.0
  9
$DIMTXT
 40
20.0
  9
$DIMCEN
 40
2.5
  9
$DIMTSZ
 40
0.0
  9
$DIMTOL
 70
     0
  9
$DIMLIM
 70
     0
  9
$DIMTIH
 70
     0
  9
$DIMTOH
 70
     0
  9
$DIMSE1
 70
     0
  9
$DIMSE2
 70
     0
  9
$DIMTAD
 70
     1
  9
$DIMZIN
 70
     8
  9
$DIMBLK
  1

  9
$DIMASO
 70
     1
  9
$DIMSHO
 70
     1
  9
$DIMPOST
  1

  9
$DIMAPOST
  1

  9
$DIMALT
 70
     0
  9
$DIMALTD
 70
     3
  9
$DIMALTF
 40
0.03937007874016
  9
$DIMLFAC
 40
1.0
  9
$DIMTOFL
 70
     1
  9
$DIMTVP
 40
0.0
  9
$DIMTIX
 70
     0
  9
$DIMSOXD
 70
     0
  9
$DIMSAH
 70
     0
  9
$DIMBLK1
  1

  9
$DIMBLK2
  1

  9
$DIMSTYLE
  2
ISO-25
  9
$DIMCLRD
 70
     0
  9
$DIMCLRE
 70
     0
  9
$DIMCLRT
 70
     0
  9
$DIMTFAC
 40
1.0
  9
$DIMGAP
 40
0.625
  9
$DIMJUST
 70
     0
  9
$DIMSD1
 70
     0
  9
$DIMSD2
 70
     0
  9
$DIMTOLJ
 70
     0
  9
$DIMTZIN
 70
     8
  9
$DIMALTZ
 70
     0
  9
$DIMALTTZ
 70
     0
  9
$DIMUPT
 70
     0
  9
$DIMDEC
 70
     2
  9
$DIMTDEC
 70
     2
  9
$DIMALTU
 70
     2
  9
$DIMALTTD
 70
     3
  9
$DIMTXSTY
  7
Standard
  9
$DIMAUNIT
 70
     0
  9
$DIMADEC
 70
     2
  9
$DIMALTRND
 40
0.0
  9
$DIMAZIN
 70
     0
  9
$DIMDSEP
 70
    44
  9
$DIMATFIT
 70
     3
  9
$DIMFRAC
 70
     0
  9
$DIMLDRBLK
  1

  9
$DIMLUNIT
 70
     2
  9
$DIMLWD
 70
    -2
  9
$DIMLWE
 70
    -2
  9
$DIMTMOVE
 70
     0
  9
$LUNITS
 70
     2
  9
$LUPREC
 70
     4
  9
$SKETCHINC
 40
1.0
  9
$FILLETRAD
 40
0.0
  9
$AUNITS
 70
     0
  9
$AUPREC
 70
     0
  9
$MENU
  1
.
  9
$ELEVATION
 40
0.0
  9
$PELEVATION
 40
0.0
  9
$THICKNESS
 40
0.0
  9
$LIMCHECK
 70
     0
  9
$CHAMFERA
 40
0.0
  9
$CHAMFERB
 40
0.0
  9
$CHAMFERC
 40
0.0
  9
$CHAMFERD
 40
0.0
  9
$SKPOLY
 70
     0
  9
$TDCREATE
 40
2453353.800459155
  9
$TDUCREATE
 40
2453353.717125822
  9
$TDUPDATE
 40
4912408.1552
  9
$TDUUPDATE
 40
4912408.071866667
  9
$TDINDWG
 40
2440772.066245926
  9
$TDUSRTIMER
 40
2440772.066245926
  9
$USRTIMER
 70
     1
  9
$ANGBASE
 50
0.0
  9
$ANGDIR
 70
     0
  9
$PDMODE
 70
     0
  9
$PDSIZE
 40
0.0
  9
$PLINEWID
 40
9.0
  9
$SPLFRAME
 70
     0
  9
$SPLINETYPE
 70
     6
  9
$SPLINESEGS
 70
     8
  9
$HANDSEED
  5
48D
  9
$SURFTAB1
 70
     6
  9
$SURFTAB2
 70
     6
  9
$SURFTYPE
 70
     6
  9
$SURFU
 70
     6
  9
$SURFV
 70
     6
  9
$UCSBASE
  2

  9
$UCSNAME
  2

  9
$UCSORG
 10
0.0
 20
0.0
 30
0.0
  9
$UCSXDIR
 10
1.0
 20
0.0
 30
0.0
  9
$UCSYDIR
 10
0.0
 20
1.0
 30
0.0
  9
$UCSORTHOREF
  2

  9
$UCSORTHOVIEW
 70
     0
  9
$UCSORGTOP
 10
0.0
 20
0.0
 30
0.0
  9
$UCSORGBOTTOM
 10
0.0
 20
0.0
 30
0.0
  9
$UCSORGLEFT
 10
0.0
 20
0.0
 30
0.0
  9
$UCSORGRIGHT
 10
0.0
 20
0.0
 30
0.0
  9
$UCSORGFRONT
 10
0.0
 20
0.0
 30
0.0
  9
$UCSORGBACK
 10
0.0
 20
0.0
 30
0.0
  9
$PUCSBASE
  2

  9
$PUCSNAME
  2

  9
$PUCSORG
 10
0.0
 20
0.0
 30
0.0
  9
$PUCSXDIR
 10
1.0
 20
0.0
 30
0.0
  9
$PUCSYDIR
 10
0.0
 20
1.0
 30
0.0
  9
$PUCSORTHOREF
  2

  9
$PUCSORTHOVIEW
 70
     0
  9
$PUCSORGTOP
 10
0.0
 20
0.0
 30
0.0
  9
$PUCSORGBOTTOM
 10
0.0
 20
0.0
 30
0.0
  9
$PUCSORGLEFT
 10
0.0
 20
0.0
 30
0.0
  9
$PUCSORGRIGHT
 10
0.0
 20
0.0
 30
0.0
  9
$PUCSORGFRONT
 10
0.0
 20
0.0
 30
0.0
  9
$PUCSORGBACK
 10
0.0
 20
0.0
 30
0.0
  9
$USERI1
 70
     0
  9
$USERI2
 70
     0
  9
$USERI3
 70
     0
  9
$USERI4
 70
     0
  9
$USERI5
 70
     0
  9
$USERR1
 40
0.0
  9
$USERR2
 40
0.0
  9
$USERR3
 40
0.0
  9
$USERR4
 40
0.0
  9
$USERR5
 40
0.0
  9
$WORLDVIEW
 70
     1
  9
$SHADEDGE
 70
     3
  9
$SHADEDIF
 70
    70
  9
$TILEMODE
 70
     1
  9
$MAXACTVP
 70
    64
  9
$PINSBASE
 10
0.0
 20
0.0
 30
0.0
  9
$PLIMCHECK
 70
     0
  9
$PEXTMIN
 10
1.000000000000000E+20
 20
1.000000000000000E+20
 30
1.000000000000000E+20
  9
$PEXTMAX
 10
-1.000000000000000E+20
 20
-1.000000000000000E+20
 30
-1.000000000000000E+20
  9
$PLIMMIN
 10
0.0
 20
0.0
  9
$PLIMMAX
 10
420.0
 20
297.0
  9
$UNITMODE
 70
     0
  9
$VISRETAIN
 70
     1
  9
$PLINEGEN
 70
     0
  9
$PSLTSCALE
 70
     1
  9
$TREEDEPTH
 70
  3020
  9
$CMLSTYLE
  2
Standard
  9
$CMLJUST
 70
     0
  9
$CMLSCALE
 40
20.0
  9
$PROXYGRAPHICS
 70
     1
  9
$MEASUREMENT
 70
     1
  9
$CELWEIGHT
370
    -1
  9
$ENDCAPS
280
     0
  9
$JOINSTYLE
280
     0
  9
$LWDISPLAY
290
     0
  9
$INSUNITS
 70
     4
  9
$HYPERLINKBASE
  1

  9
$STYLESHEET
  1

  9
$XEDIT
290
     0
  9
$CEPSNTYPE
380
     0
  9
$PSTYLEMODE
290
     1
  9
$FINGERPRINTGUID
  2
{5559452E-1E62-4159-8551-BF76FFF3E7E8}
  9
$VERSIONGUID
  2
{3CEB9EF8-4431-4551-B596-6734A9F966A9}
  9
$EXTNAMES
290
     1
  9
$PSVPSCALE
 40
0.0
  9
$OLESTARTUP
290
     0
  0
ENDSEC
  0
SECTION
  2
CLASSES
  0
CLASS
  1
ACDBDICTIONARYWDFLT
  2
AcDbDictionaryWithDefault
  3
ObjectDBX Classes
 90
        0
280
     0
281
     0
  0
CLASS
  1
ACDBPLACEHOLDER
  2
AcDbPlaceHolder
  3
ObjectDBX Classes
 90
        0
280
     0
281
     0
  0
CLASS
  1
LAYOUT
  2
AcDbLayout
  3
ObjectDBX Classes
 90
        0
280
     0
281
     0
  0
CLASS
  1
DICTIONARYVAR
  2
AcDbDictionaryVar
  3
ObjectDBX Classes
 90
        0
280
     0
281
     0
  0
CLASS
  1
TABLESTYLE
  2
AcDbTableStyle
  3
ObjectDBX Classes
 90
     2047
280
     0
281
     0
  0
ENDSEC
  0
SECTION
  2
TABLES
  0
TABLE
  2
VPORT
  5
8
330
0
100
AcDbSymbolTable
 70
     2
  0
VPORT
  5
97
330
8
100
AcDbSymbolTableRecord
100
AcDbViewportTableRecord
  2
*Active
 70
     0
 10
0.0
 20
0.0
 11
1.0
 21
1.0
 12
-138.6739083869719
 22
522.1613241301626
 13
0.0
 23
0.0
 14
10.0
 24
10.0
 15
10.0
 25
10.0
 16
0.0
 26
0.0
 36
1.0
 17
0.0
 27
0.0
 37
0.0
 40
2346.823415891007
 41
1.664827586206897
 42
50.0
 43
0.0
 44
0.0
 50
0.0
 51
0.0
 71
    16
 72
  1000
 73
     1
 74
     1
 75
     0
 76
     0
 77
     0
 78
     0
281
     0
 65
     1
110
0.0
120
0.0
130
0.0
111
1.0
121
0.0
131
0.0
112
0.0
122
1.0
132
0.0
 79
     0
146
0.0
  0
ENDTAB
  0
TABLE
  2
LTYPE
  5
5
330
0
100
AcDbSymbolTable
 70
     1
  0
LTYPE
  5
14
330
5
100
AcDbSymbolTableRecord
100
AcDbLinetypeTableRecord
  2
ByBlock
 70
     0
  3

 72
    65
 73
     0
 40
0.0
  0
LTYPE
  5
15
330
5
100
AcDbSymbolTableRecord
100
AcDbLinetypeTableRecord
  2
ByLayer
 70
     0
  3

 72
    65
 73
     0
 40
0.0
  0
LTYPE
  5
16
330
5
100
AcDbSymbolTableRecord
100
AcDbLinetypeTableRecord
  2
Continuous
 70
     0
  3
Solid line
 72
    65
 73
     0
 40
0.0
  0
ENDTAB
  0
TABLE
  2
LAYER
  5
2
330
0
100
AcDbSymbolTable
 70
     5
  0
LAYER
  5
10
330
2
100
AcDbSymbolTableRecord
100
AcDbLayerTableRecord
  2
0
 70
     0
 62
     7
  6
Continuous
370
    -3
390
F
  0
LAYER
  5
31
330
2
100
AcDbSymbolTableRecord
100
AcDbLayerTableRecord
  2
DCC
 70
     0
 62
     6
  6
Continuous
370
    -3
390
F
  0
LAYER
  5
32
330
2
100
AcDbSymbolTableRecord
100
AcDbLayerTableRecord
  2
Bedienraum
 70
     0
 62
    -2
  6
Continuous
370
    -3
390
F
  0
LAYER
  5
33
330
2
100
AcDbSymbolTableRecord
100
AcDbLayerTableRecord
  2
Info
 70
     0
 62
    -3
  6
Continuous
370
    -3
390
F
  0
LAYER
  5
79
330
2
100
AcDbSymbolTableRecord
100
AcDbLayerTableRecord
  2
DEFPOINTS
 70
     0
 62
     7
  6
Continuous
290
     0
370
    -3
390
F
  0
ENDTAB
  0
TABLE
  2
STYLE
  5
3
330
0
100
AcDbSymbolTable
 70
     1
  0
STYLE
  5
11
330
3
100
AcDbSymbolTableRecord
100
AcDbTextStyleTableRecord
  2
Standard
 70
     0
 40
0.0
 41
1.0
 50
0.0
 71
     0
 42
2.5
  3
txt
  4

  0
ENDTAB
  0
TABLE
  2
VIEW
  5
6
330
0
100
AcDbSymbolTable
 70
     0
  0
ENDTAB
  0
TABLE
  2
UCS
  5
7
330
0
100
AcDbSymbolTable
 70
     0
  0
ENDTAB
  0
TABLE
  2
APPID
  5
9
330
0
100
AcDbSymbolTable
 70
     1
  0
APPID
  5
12
330
9
100
AcDbSymbolTableRecord
100
AcDbRegAppTableRecord
  2
ACAD
 70
     0
  0
ENDTAB
  0
TABLE
  2
DIMSTYLE
  5
A
330
0
100
AcDbSymbolTable
 70
     2
100
AcDbDimStyleTable
  0
DIMSTYLE
105
27
330
A
100
AcDbSymbolTableRecord
100
AcDbDimStyleTableRecord
  2
Standard
 70
     0
278
     0
340
11
  0
DIMSTYLE
105
29
102
{ACAD_REACTORS
330
163
330
16F
330
187
330
193
330
19C
330
1A8
330
1D8
330
276
330
282
330
28E
330
2A6
330
2B2
330
2C1
102
}
330
A
100
AcDbSymbolTableRecord
100
AcDbDimStyleTableRecord
  2
ISO-25
 70
     0
 41
2.5
 42
0.625
 43
3.75
 44
1.25
 73
     0
 74
     0
 77
     1
 78
     8
140
2.5
141
2.5
143
0.03937007874016
147
0.625
171
     3
172
     1
271
     2
272
     2
274
     3
278
    44
283
     0
284
     8
340
11
  0
ENDTAB
  0
TABLE
  2
BLOCK_RECORD
  5
1
330
0
100
AcDbSymbolTable
 70
    43
  0
BLOCK_RECORD
  5
1F
330
1
100
AcDbSymbolTableRecord
100
AcDbBlockTableRecord
  2
*Model_Space
340
22
  0
BLOCK_RECORD
  5
73
330
1
100
AcDbSymbolTableRecord
100
AcDbBlockTableRecord
  2
*Paper_Space
340
74
  0
BLOCK_RECORD
  5
25
330
1
100
AcDbSymbolTableRecord
100
AcDbBlockTableRecord
  2
*Paper_Space0
340
28
  0
BLOCK_RECORD
  5
85
330
1
100
AcDbSymbolTableRecord
100
AcDbBlockTableRecord
  2
*D1
340
0
  0
BLOCK_RECORD
  5
91
330
1
100
AcDbSymbolTableRecord
100
AcDbBlockTableRecord
  2
*D2
340
0
  0
BLOCK_RECORD
  5
9D
330
1
100
AcDbSymbolTableRecord
100
AcDbBlockTableRecord
  2
*D3
340
0
  0
BLOCK_RECORD
  5
A9
330
1
100
AcDbSymbolTableRecord
100
AcDbBlockTableRecord
  2
*D4
340
0
  0
BLOCK_RECORD
  5
B2
330
1
100
AcDbSymbolTableRecord
100
AcDbBlockTableRecord
  2
*D5
340
0
  0
BLOCK_RECORD
  5
BE
330
1
100
AcDbSymbolTableRecord
100
AcDbBlockTableRecord
  2
*D6
340
0
  0
BLOCK_RECORD
  5
CA
330
1
100
AcDbSymbolTableRecord
100
AcDbBlockTableRecord
  2
*D7
340
0
  0
BLOCK_RECORD
  5
D6
330
1
100
AcDbSymbolTableRecord
100
AcDbBlockTableRecord
  2
*D8
340
0
  0
BLOCK_RECORD
  5
EC
330
1
100
AcDbSymbolTableRecord
100
AcDbBlockTableRecord
  2
*D9
340
0
  0
BLOCK_RECORD
  5
F8
330
1
100
AcDbSymbolTableRecord
100
AcDbBlockTableRecord
  2
*D10
340
0
  0
BLOCK_RECORD
  5
104
330
1
100
AcDbSymbolTableRecord
100
AcDbBlockTableRecord
  2
*D11
340
0
  0
BLOCK_RECORD
  5
110
330
1
100
AcDbSymbolTableRecord
100
AcDbBlockTableRecord
  2
*D12
340
0
  0
BLOCK_RECORD
  5
11C
330
1
100
AcDbSymbolTableRecord
100
AcDbBlockTableRecord
  2
*D13
340
0
  0
BLOCK_RECORD
  5
128
330
1
100
AcDbSymbolTableRecord
100
AcDbBlockTableRecord
  2
*D14
340
0
  0
BLOCK_RECORD
  5
131
330
1
100
AcDbSymbolTableRecord
100
AcDbBlockTableRecord
  2
*D15
340
0
  0
BLOCK_RECORD
  5
149
330
1
100
AcDbSymbolTableRecord
100
AcDbBlockTableRecord
  2
*D16
340
0
  0
BLOCK_RECORD
  5
156
330
1
100
AcDbSymbolTableRecord
100
AcDbBlockTableRecord
  2
*D17
340
0
  0
BLOCK_RECORD
  5
16E
330
1
100
AcDbSymbolTableRecord
100
AcDbBlockTableRecord
  2
*D18
340
0
  0
BLOCK_RECORD
  5
17A
330
1
100
AcDbSymbolTableRecord
100
AcDbBlockTableRecord
  2
*D19
340
0
  0
BLOCK_RECORD
  5
186
330
1
100
AcDbSymbolTableRecord
100
AcDbBlockTableRecord
  2
*D20
340
0
  0
BLOCK_RECORD
  5
192
330
1
100
AcDbSymbolTableRecord
100
AcDbBlockTableRecord
  2
*D21
340
0
  0
BLOCK_RECORD
  5
19B
330
1
100
AcDbSymbolTableRecord
100
AcDbBlockTableRecord
  2
*D22
340
0
  0
BLOCK_RECORD
  5
1A7
330
1
100
AcDbSymbolTableRecord
100
AcDbBlockTableRecord
  2
*D23
340
0
  0
BLOCK_RECORD
  5
1B3
330
1
100
AcDbSymbolTableRecord
100
AcDbBlockTableRecord
  2
*D24
340
0
  0
BLOCK_RECORD
  5
1C4
330
1
100
AcDbSymbolTableRecord
100
AcDbBlockTableRecord
  2
*D25
340
0
  0
BLOCK_RECORD
  5
1CF
330
1
100
AcDbSymbolTableRecord
100
AcDbBlockTableRecord
  2
*D26
340
0
  0
BLOCK_RECORD
  5
1D7
330
1
100
AcDbSymbolTableRecord
100
AcDbBlockTableRecord
  2
*D27
340
0
  0
BLOCK_RECORD
  5
1E3
330
1
100
AcDbSymbolTableRecord
100
AcDbBlockTableRecord
  2
*D28
340
0
  0
BLOCK_RECORD
  5
281
330
1
100
AcDbSymbolTableRecord
100
AcDbBlockTableRecord
  2
*D29
340
0
  0
BLOCK_RECORD
  5
28D
330
1
100
AcDbSymbolTableRecord
100
AcDbBlockTableRecord
  2
*D30
340
0
  0
BLOCK_RECORD
  5
299
330
1
100
AcDbSymbolTableRecord
100
AcDbBlockTableRecord
  2
*D31
340
0
  0
BLOCK_RECORD
  5
2A5
330
1
100
AcDbSymbolTableRecord
100
AcDbBlockTableRecord
  2
*D32
340
0
  0
BLOCK_RECORD
  5
2B1
330
1
100
AcDbSymbolTableRecord
100
AcDbBlockTableRecord
  2
*D33
340
0
  0
BLOCK_RECORD
  5
2BD
330
1
100
AcDbSymbolTableRecord
100
AcDbBlockTableRecord
  2
*D34
340
0
  0
BLOCK_RECORD
  5
2CC
330
1
100
AcDbSymbolTableRecord
100
AcDbBlockTableRecord
  2
*D35
340
0
  0
BLOCK_RECORD
  5
2D8
330
1
100
AcDbSymbolTableRecord
100
AcDbBlockTableRecord
  2
*D36
340
0
  0
BLOCK_RECORD
  5
2E3
330
1
100
AcDbSymbolTableRecord
100
AcDbBlockTableRecord
  2
*D37
340
0
  0
BLOCK_RECORD
  5
2EE
330
1
100
AcDbSymbolTableRecord
100
AcDbBlockTableRecord
  2
*D38
340
0
  0
BLOCK_RECORD
  5
2F9
330
1
100
AcDbSymbolTableRecord
100
AcDbBlockTableRecord
  2
*D39
340
0
  0
BLOCK_RECORD
  5
304
330
1
100
AcDbSymbolTableRecord
100
AcDbBlockTableRecord
  2
*D40
340
0
  0
BLOCK_RECORD
  5
30F
330
1
100
AcDbSymbolTableRecord
100
AcDbBlockTableRecord
  2
*D41
340
0
  0
BLOCK_RECORD
  5
31A
330
1
100
AcDbSymbolTableRecord
100
AcDbBlockTableRecord
  2
*D42
340
0
  0
ENDTAB
  0
ENDSEC
  0
SECTION
  2
BLOCKS
  0
BLOCK
  5
20
330
1F
100
AcDbEntity
  8
0
100
AcDbBlockBegin
  2
*Model_Space
 70
     0
 71
     0
 10
0.0
 20
0.0
 30
0.0
  3
*Model_Space
  1

  0
ENDBLK
  5
21
330
1F
100
AcDbEntity
  8
0
100
AcDbBlockEnd
  0
BLOCK
  5
75
330
73
100
AcDbEntity
 67
     1
  8
0
100
AcDbBlockBegin
  2
*Paper_Space
 70
     0
 71
     0
 10
0.0
 20
0.0
 30
0.0
  3
*Paper_Space
  1

  0
ENDBLK
  5
76
330
73
100
AcDbEntity
 67
     1
  8
0
100
AcDbBlockEnd
  0
BLOCK
  5
433
330
25
100
AcDbEntity
  8
0
100
AcDbBlockBegin
  2
*Paper_Space0
 70
     0
 71
     0
 10
0.0
 20
0.0
 30
0.0
  3
*Paper_Space0
  1

  0
ENDBLK
  5
434
330
25
100
AcDbEntity
  8
0
100
AcDbBlockEnd
  0
BLOCK
  5
435
330
85
100
AcDbEntity
  8
0
100
AcDbBlockBegin
  2
*D1
 70
     1
 71
     0
 10
0.0
 20
0.0
 30
0.0
  3
*D1
  1

  0
POINT
  5
7C
330
85
100
AcDbEntity
  8
DEFPOINTS
  6
ByBlock
 62
     0
100
AcDbPoint
 10
-258.8190451025207
 20
965.9258262890684
 30
0.0
  0
POINT
  5
7D
330
85
100
AcDbEntity
  8
DEFPOINTS
  6
ByBlock
 62
     0
100
AcDbPoint
 10
258.8190451025208
 20
965.9258262890684
 30
0.0
  0
LINE
  5
7E
330
85
100
AcDbEntity
  8
0
  6
ByBlock
 62
     0
370
    -2
100
AcDbLine
 10
-258.8190451025207
 20
966.5508262890684
 30
0.0
 11
-258.8190451025207
 21
1029.891718978033
 31
0.0
  0
LINE
  5
7F
330
85
100
AcDbEntity
  8
0
  6
ByBlock
 62
     0
370
    -2
100
AcDbLine
 10
258.8190451025208
 20
966.5508262890684
 30
0.0
 11
258.8190451025208
 21
1029.891718978033
 31
0.0
  0
LINE
  5
80
330
85
100
AcDbEntity
  8
0
  6
ByBlock
 62
     0
370
    -2
100
AcDbLine
 10
-256.3190451025207
 20
1028.641718978033
 30
0.0
 11
256.3190451025208
 21
1028.641718978033
 31
0.0
  0
SOLID
  5
81
330
85
100
AcDbEntity
  8
0
  6
ByBlock
 62
     0
100
AcDbTrace
 10
-258.8190451025207
 20
1028.641718978033
 30
0.0
 11
-256.3190451025207
 21
1028.225052311366
 31
0.0
 12
-256.3190451025207
 22
1029.0583856447
 32
0.0
 13
-256.3190451025207
 23
1029.0583856447
 33
0.0
  0
SOLID
  5
82
330
85
100
AcDbEntity
  8
0
  6
ByBlock
 62
     0
100
AcDbTrace
 10
258.8190451025208
 20
1028.641718978033
 30
0.0
 11
256.3190451025208
 21
1028.225052311366
 31
0.0
 12
256.3190451025208
 22
1029.0583856447
 32
0.0
 13
256.3190451025208
 23
1029.0583856447
 33
0.0
  0
MTEXT
  5
83
330
85
100
AcDbEntity
  8
0
  6
ByBlock
 62
     0
100
AcDbMText
 10
0.0000000000000568
 20
1030.729218978033
 30
0.0
 40
2.5
 41
0.0
 71
     5
 72
     1
  1
\A1;517,64
 73
     1
 44
1.0
  0
ENDBLK
  5
436
330
85
100
AcDbEntity
  8
Info
100
AcDbBlockEnd
  0
BLOCK
  5
437
330
91
100
AcDbEntity
  8
0
100
AcDbBlockBegin
  2
*D2
 70
     1
 71
     0
 10
0.0
 20
0.0
 30
0.0
  3
*D2
  1

  0
POINT
  5
88
330
91
100
AcDbEntity
  8
DEFPOINTS
  6
ByBlock
 62
     0
100
AcDbPoint
 10
-258.8190451025207
 20
965.9258262890684
 30
0.0
  0
POINT
  5
89
330
91
100
AcDbEntity
  8
DEFPOINTS
  6
ByBlock
 62
     0
100
AcDbPoint
 10
258.8190451025208
 20
965.9258262890684
 30
0.0
  0
LINE
  5
8A
330
91
100
AcDbEntity
  8
0
  6
ByBlock
 62
     0
370
    -2
100
AcDbLine
 10
-258.8190451025207
 20
966.5508262890684
 30
0.0
 11
-258.8190451025207
 21
1031.728094507668
 31
0.0
  0
LINE
  5
8B
330
91
100
AcDbEntity
  8
0
  6
ByBlock
 62
     0
370
    -2
100
AcDbLine
 10
258.8190451025208
 20
966.5508262890684
 30
0.0
 11
258.8190451025208
 21
1031.728094507668
 31
0.0
  0
LINE
  5
8C
330
91
100
AcDbEntity
  8
0
  6
ByBlock
 62
     0
370
    -2
100
AcDbLine
 10
-256.3190451025207
 20
1030.478094507668
 30
0.0
 11
256.3190451025208
 21
1030.478094507668
 31
0.0
  0
SOLID
  5
8D
330
91
100
AcDbEntity
  8
0
  6
ByBlock
 62
     0
100
AcDbTrace
 10
-258.8190451025207
 20
1030.478094507668
 30
0.0
 11
-256.3190451025207
 21
1030.061427841001
 31
0.0
 12
-256.3190451025207
 22
1030.894761174335
 32
0.0
 13
-256.3190451025207
 23
1030.894761174335
 33
0.0
  0
SOLID
  5
8E
330
91
100
AcDbEntity
  8
0
  6
ByBlock
 62
     0
100
AcDbTrace
 10
258.8190451025208
 20
1030.478094507668
 30
0.0
 11
256.3190451025208
 21
1030.061427841001
 31
0.0
 12
256.3190451025208
 22
1030.894761174335
 32
0.0
 13
256.3190451025208
 23
1030.894761174335
 33
0.0
  0
MTEXT
  5
8F
330
91
100
AcDbEntity
  8
0
  6
ByBlock
 62
     0
100
AcDbMText
 10
0.0000000000000568
 20
1042.803094507668
 30
0.0
 40
20.0
 41
0.0
 71
     5
 72
     1
  1
\A1;517,64
 73
     1
 44
1.0
  0
ENDBLK
  5
438
330
91
100
AcDbEntity
  8
Info
100
AcDbBlockEnd
  0
BLOCK
  5
439
330
9D
100
AcDbEntity
  8
0
100
AcDbBlockBegin
  2
*D3
 70
     1
 71
     0
 10
0.0
 20
0.0
 30
0.0
  3
*D3
  1

  0
POINT
  5
94
330
9D
100
AcDbEntity
  8
DEFPOINTS
  6
ByBlock
 62
     0
100
AcDbPoint
 10
258.8190451025208
 20
965.9258262890684
 30
0.0
  0
POINT
  5
95
330
9D
100
AcDbEntity
  8
DEFPOINTS
  6
ByBlock
 62
     0
100
AcDbPoint
 10
155.2914270615124
 20
579.5554957734408
 30
0.0
  0
LINE
  5
96
330
9D
100
AcDbEntity
  8
0
  6
ByBlock
 62
     0
370
    -2
100
AcDbLine
 10
259.4227487439514
 20
965.7640643858792
 30
0.0
 11
341.3149349210197
 21
943.8211192333147
 31
0.0
  0
LINE
  5
231
330
9D
100
AcDbEntity
  8
0
  6
ByBlock
 62
     0
370
    -2
100
AcDbLine
 10
155.8951307029431
 20
579.3937338702517
 30
0.0
 11
237.7873168800114
 21
557.4507887176872
 31
0.0
  0
LINE
  5
232
330
9D
100
AcDbEntity
  8
0
  6
ByBlock
 62
     0
370
    -2
100
AcDbLine
 10
339.4604800254021
 20
941.7298284739702
 30
0.0
 11
237.2269572099064
 21
560.189127089788
 31
0.0
  0
SOLID
  5
99
330
9D
100
AcDbEntity
  8
0
  6
ByBlock
 62
     0
100
AcDbTrace
 10
340.1075276381584
 20
944.1446430396928
 30
0.0
 11
339.0580109311149
 21
941.837669742763
 31
0.0
 12
339.8629491196893
 22
941.6219872051775
 32
0.0
 13
339.8629491196893
 23
941.6219872051775
 33
0.0
  0
SOLID
  5
9A
330
9D
100
AcDbEntity
  8
0
  6
ByBlock
 62
     0
100
AcDbTrace
 10
236.5799095971501
 20
557.7743125240653
 30
0.0
 11
236.8244881156192
 21
560.2969683585807
 31
0.0
 12
237.6294263041936
 22
560.0812858209953
 32
0.0
 13
237.6294263041936
 23
560.0812858209953
 33
0.0
  0
MTEXT
  5
9B
330
9D
100
AcDbEntity
  8
0
  6
ByBlock
 62
     0
100
AcDbMText
 10
278.0807567133329
 20
753.7094301360934
 30
0.0
 40
20.0
 41
0.0
 71
     5
 72
     1
  1
\A1;400
 11
0.2588190451025205
 21
0.9659258262890683
 31
0.0
 73
     1
 44
1.0
  0
ENDBLK
  5
43A
330
9D
100
AcDbEntity
  8
Info
100
AcDbBlockEnd
  0
BLOCK
  5
43B
330
A9
100
AcDbEntity
  8
0
100
AcDbBlockBegin
  2
*D4
 70
     1
 71
     0
 10
0.0
 20
0.0
 30
0.0
  3
*D4
  1

  0
POINT
  5
A0
330
A9
100
AcDbEntity
  8
DEFPOINTS
  6
ByBlock
 62
     0
100
AcDbPoint
 10
-258.8190451025207
 20
965.9258262890684
 30
0.0
  0
POINT
  5
A1
330
A9
100
AcDbEntity
  8
DEFPOINTS
  6
ByBlock
 62
     0
100
AcDbPoint
 10
-155.2914270615118
 20
579.5554957734389
 30
0.0
  0
LINE
  5
A2
330
A9
100
AcDbEntity
  8
0
  6
ByBlock
 62
     0
370
    -2
100
AcDbLine
 10
-259.4227487439513
 20
965.7640643858792
 30
0.0
 11
-333.0860953466477
 21
946.0260301519129
 31
0.0
  0
LINE
  5
A3
330
A9
100
AcDbEntity
  8
0
  6
ByBlock
 62
     0
370
    -2
100
AcDbLine
 10
-155.8951307029425
 20
579.3937338702498
 30
0.0
 11
-229.558477305639
 21
559.6556996362834
 31
0.0
  0
LINE
  5
A4
330
A9
100
AcDbEntity
  8
0
  6
ByBlock
 62
     0
370
    -2
100
AcDbLine
 10
-331.2316404510301
 20
943.9347393925684
 30
0.0
 11
-228.998117635534
 21
562.3940380083842
 31
0.0
  0
SOLID
  5
A5
330
A9
100
AcDbEntity
  8
0
  6
ByBlock
 62
     0
100
AcDbTrace
 10
-331.8786880637864
 20
946.349553958291
 30
0.0
 11
-331.6341095453173
 21
943.8268981237757
 31
0.0
 12
-330.8291713567429
 22
944.0425806613612
 32
0.0
 13
-330.8291713567429
 23
944.0425806613612
 33
0.0
  0
SOLID
  5
A6
330
A9
100
AcDbEntity
  8
0
  6
ByBlock
 62
     0
100
AcDbTrace
 10
-228.3510700227777
 20
559.9792234426616
 30
0.0
 11
-229.4005867298212
 21
562.2861967395916
 31
0.0
 12
-228.5956485412468
 22
562.501879277177
 32
0.0
 13
-228.5956485412468
 23
562.501879277177
 33
0.0
  0
MTEXT
  5
A7
330
A9
100
AcDbEntity
  8
0
  6
ByBlock
 62
     0
100
AcDbMText
 10
-269.8519171389607
 20
755.9143410546906
 30
0.0
 40
20.0
 41
0.0
 71
     5
 72
     1
  1
\A1;400
 11
0.2588190451025203
 21
-0.9659258262890684
 31
0.0
 73
     1
 44
1.0
  0
ENDBLK
  5
43C
330
A9
100
AcDbEntity
  8
Info
100
AcDbBlockEnd
  0
BLOCK
  5
43D
330
B2
100
AcDbEntity
  8
0
100
AcDbBlockBegin
  2
*D5
 70
     1
 71
     0
 10
0.0
 20
0.0
 30
0.0
  3
*D5
  1

  0
LINE
  5
AC
330
B2
100
AcDbEntity
  8
0
  6
ByBlock
 62
     0
370
    -2
100
AcDbLine
 10
124.3442170445537
 20
787.7466380046209
 30
0.0
 11
104.9404468737076
 21
664.8196931092123
 31
0.0
  0
SOLID
  5
AD
330
B2
100
AcDbEntity
  8
0
  6
ByBlock
 62
     0
100
AcDbTrace
 10
124.7340108283924
 20
790.2160632021275
 30
0.0
 11
124.7557879108049
 21
787.6816723739811
 31
0.0
 12
123.9326461783025
 22
787.8116036352607
 32
0.0
 13
123.9326461783025
 23
787.8116036352607
 33
0.0
  0
MTEXT
  5
AE
330
B2
100
AcDbEntity
  8
0
  6
ByBlock
 62
     0
100
AcDbMText
 10
99.73489143099582
 20
699.9864166206919
 30
0.0
 40
20.0
 41
0.0
 71
     5
 72
     1
  1
\A1;R800
 11
0.1559175135354878
 21
0.9877700790026548
 31
0.0
 73
     1
 44
1.0
  0
POINT
  5
AF
330
B2
100
AcDbEntity
  8
DEFPOINTS
  6
ByBlock
 62
     0
100
AcDbPoint
 10
0.0000000000018677
 20
-0.0000000000006605
 30
0.0
  0
POINT
  5
B0
330
B2
100
AcDbEntity
  8
DEFPOINTS
  6
ByBlock
 62
     0
100
AcDbPoint
 10
124.7340108283924
 20
790.2160632021275
 30
0.0
  0
ENDBLK
  5
43E
330
B2
100
AcDbEntity
  8
Info
100
AcDbBlockEnd
  0
BLOCK
  5
43F
330
BE
100
AcDbEntity
  8
0
100
AcDbBlockBegin
  2
*D6
 70
     1
 71
     0
 10
0.0
 20
0.0
 30
0.0
  3
*D6
  1

  0
MTEXT
  5
B5
330
BE
100
AcDbEntity
  8
0
  6
ByBlock
 62
     0
100
AcDbMText
 10
-108.3265081532254
 20
640.7613697281478
 30
0.0
 40
20.0
 41
0.0
 71
     5
 72
     1
  1
\A1;105,00%%d
 11
0.7933533402912378
 21
-0.6087614290087172
 31
0.0
 73
     1
 44
1.0
  0
POINT
  5
B6
330
BE
100
AcDbEntity
  8
DEFPOINTS
  6
ByBlock
 62
     0
100
AcDbPoint
 10
-258.8190451025207
 20
965.9258262890684
 30
0.0
  0
POINT
  5
B7
330
BE
100
AcDbEntity
  8
DEFPOINTS
  6
ByBlock
 62
     0
100
AcDbPoint
 10
-155.2914270615205
 20
579.5554957734388
 30
0.0
  0
POINT
  5
B8
330
BE
100
AcDbEntity
  8
DEFPOINTS
  6
ByBlock
 62
     0
100
AcDbPoint
 10
155.2914270615123
 20
579.555495773441
 30
0.0
  0
POINT
  5
B9
330
BE
100
AcDbEntity
  8
DEFPOINTS
  6
ByBlock
 62
     0
100
AcDbPoint
 10
-155.2914270615118
 20
579.5554957734389
 30
0.0
  0
SOLID
  5
BA
330
BE
100
AcDbEntity
  8
0
  6
ByBlock
 62
     0
100
AcDbTrace
 10
-88.76811136621198
 20
579.5554957734393
 30
0.0
 11
-89.23168047904993
 21
582.0472250502135
 31
0.0
 12
-88.39849427507768
 22
582.0628837204974
 32
0.0
 13
-88.39849427507768
 23
582.0628837204974
 33
0.0
  0
SOLID
  5
BB
330
BE
100
AcDbEntity
  8
0
  6
ByBlock
 62
     0
100
AcDbTrace
 10
-172.5089281068228
 20
643.8120844539097
 30
0.0
 11
-170.1826412748143
 21
644.8180669022333
 31
0.0
 12
-169.9821219311423
 22
644.0092180676184
 32
0.0
 13
-169.9821219311423
 23
644.0092180676184
 33
0.0
  0
ARC
  5
BC
330
BE
100
AcDbEntity
  8
0
  6
ByBlock
 62
     0
370
    -2
100
AcDbCircle
 10
-155.2914270615118
 20
579.5554957734388
 30
0.0
 40
66.52331569529979
100
AcDbArc
 50
2.153348457940403
 51
102.84665154206
  0
ENDBLK
  5
440
330
BE
100
AcDbEntity
  8
Info
100
AcDbBlockEnd
  0
BLOCK
  5
441
330
CA
100
AcDbEntity
  8
0
100
AcDbBlockBegin
  2
*D7
 70
     1
 71
     0
 10
0.0
 20
0.0
 30
0.0
  3
*D7
  1

  0
MTEXT
  5
C1
330
CA
100
AcDbEntity
  8
0
  6
ByBlock
 62
     0
100
AcDbMText
 10
107.4528291485612
 20
641.8999703747469
 30
0.0
 40
20.0
 41
0.0
 71
     5
 72
     1
  1
\A1;105,00%%d
 11
0.7933533402912329
 21
0.6087614290087235
 31
0.0
 73
     1
 44
1.0
  0
POINT
  5
C2
330
CA
100
AcDbEntity
  8
DEFPOINTS
  6
ByBlock
 62
     0
100
AcDbPoint
 10
258.8190451025208
 20
965.9258262890684
 30
0.0
  0
POINT
  5
C3
330
CA
100
AcDbEntity
  8
DEFPOINTS
  6
ByBlock
 62
     0
100
AcDbPoint
 10
-155.2914270615205
 20
579.5554957734388
 30
0.0
  0
POINT
  5
C4
330
CA
100
AcDbEntity
  8
DEFPOINTS
  6
ByBlock
 62
     0
100
AcDbPoint
 10
155.2914270615123
 20
579.555495773441
 30
0.0
  0
POINT
  5
C5
330
CA
100
AcDbEntity
  8
DEFPOINTS
  6
ByBlock
 62
     0
100
AcDbPoint
 10
155.2914270615124
 20
579.5554957734408
 30
0.0
  0
SOLID
  5
C6
330
CA
100
AcDbEntity
  8
0
  6
ByBlock
 62
     0
100
AcDbTrace
 10
172.8803786536847
 20
645.1983567672976
 30
0.0
 11
170.3536509177544
 21
645.396493234389
 31
0.0
 12
170.5544912711857
 22
646.205262420794
 32
0.0
 13
170.5544912711857
 23
646.205262420794
 33
0.0
  0
SOLID
  5
C7
330
CA
100
AcDbEntity
  8
0
  6
ByBlock
 62
     0
100
AcDbTrace
 10
87.3329366606025
 20
579.5554957734405
 30
0.0
 11
86.96232443660813
 21
582.0627368249825
 31
0.0
 12
87.79551678975673
 22
582.0474088407891
 32
0.0
 13
87.79551678975673
 23
582.0474088407891
 33
0.0
  0
ARC
  5
C8
330
CA
100
AcDbEntity
  8
0
  6
ByBlock
 62
     0
370
    -2
100
AcDbCircle
 10
155.2914270615124
 20
579.555495773441
 30
0.0
 40
67.9584904009099
100
AcDbArc
 50
77.10786799491699
 51
177.8921320050834
  0
ENDBLK
  5
442
330
CA
100
AcDbEntity
  8
Info
100
AcDbBlockEnd
  0
BLOCK
  5
443
330
D6
100
AcDbEntity
  8
0
100
AcDbBlockBegin
  2
*D8
 70
     1
 71
     0
 10
0.0
 20
0.0
 30
0.0
  3
*D8
  1

  0
POINT
  5
CD
330
D6
100
AcDbEntity
  8
DEFPOINTS
  6
ByBlock
 62
     0
100
AcDbPoint
 10
-155.8951307029425
 20
579.3937338702498
 30
0.0
  0
POINT
  5
CE
330
D6
100
AcDbEntity
  8
DEFPOINTS
  6
ByBlock
 62
     0
100
AcDbPoint
 10
155.8951307029431
 20
579.3937338702517
 30
0.0
  0
LINE
  5
CF
330
D6
100
AcDbEntity
  8
0
  6
ByBlock
 62
     0
370
    -2
100
AcDbLine
 10
-155.8951307029425
 20
578.7687338702498
 30
0.0
 11
-155.8951307029425
 21
484.0351754309284
 31
0.0
  0
LINE
  5
D0
330
D6
100
AcDbEntity
  8
0
  6
ByBlock
 62
     0
370
    -2
100
AcDbLine
 10
155.8951307029431
 20
578.7687338702517
 30
0.0
 11
155.8951307029431
 21
484.0351754309284
 31
0.0
  0
LINE
  5
D1
330
D6
100
AcDbEntity
  8
0
  6
ByBlock
 62
     0
370
    -2
100
AcDbLine
 10
-153.3951307029425
 20
485.2851754309284
 30
0.0
 11
153.3951307029431
 21
485.2851754309284
 31
0.0
  0
SOLID
  5
D2
330
D6
100
AcDbEntity
  8
0
  6
ByBlock
 62
     0
100
AcDbTrace
 10
-155.8951307029425
 20
485.2851754309284
 30
0.0
 11
-153.3951307029425
 21
484.8685087642616
 31
0.0
 12
-153.3951307029425
 22
485.7018420975951
 32
0.0
 13
-153.3951307029425
 23
485.7018420975951
 33
0.0
  0
SOLID
  5
D3
330
D6
100
AcDbEntity
  8
0
  6
ByBlock
 62
     0
100
AcDbTrace
 10
155.8951307029431
 20
485.2851754309284
 30
0.0
 11
153.3951307029431
 21
484.8685087642616
 31
0.0
 12
153.3951307029431
 22
485.7018420975951
 32
0.0
 13
153.3951307029431
 23
485.7018420975951
 33
0.0
  0
MTEXT
  5
D4
330
D6
100
AcDbEntity
  8
0
  6
ByBlock
 62
     0
100
AcDbMText
 10
0.0000000000003126
 20
497.6101754309283
 30
0.0
 40
20.0
 41
0.0
 71
     5
 72
     1
  1
\A1;311,79
 73
     1
 44
1.0
  0
ENDBLK
  5
444
330
D6
100
AcDbEntity
  8
Info
100
AcDbBlockEnd
  0
BLOCK
  5
445
330
EC
100
AcDbEntity
  8
0
100
AcDbBlockBegin
  2
*D9
 70
     1
 71
     0
 10
0.0
 20
0.0
 30
0.0
  3
*D9
  1

  0
POINT
  5
E3
330
EC
100
AcDbEntity
  8
DEFPOINTS
  6
ByBlock
 62
     0
100
AcDbPoint
 10
-310.5828541230247
 20
1159.110991546882
 30
0.0
  0
POINT
  5
E4
330
EC
100
AcDbEntity
  8
DEFPOINTS
  6
ByBlock
 62
     0
100
AcDbPoint
 10
310.5828541230249
 20
1159.110991546882
 30
0.0
  0
LINE
  5
E5
330
EC
100
AcDbEntity
  8
0
  6
ByBlock
 62
     0
370
    -2
100
AcDbLine
 10
-310.5828541230247
 20
1159.735991546882
 30
0.0
 11
-310.5828541230247
 21
1212.660250069398
 31
0.0
  0
LINE
  5
E6
330
EC
100
AcDbEntity
  8
0
  6
ByBlock
 62
     0
370
    -2
100
AcDbLine
 10
310.582854123025
 20
1159.735991546882
 30
0.0
 11
310.582854123025
 21
1212.660250069398
 31
0.0
  0
LINE
  5
E7
330
EC
100
AcDbEntity
  8
0
  6
ByBlock
 62
     0
370
    -2
100
AcDbLine
 10
-308.0828541230247
 20
1211.410250069398
 30
0.0
 11
308.082854123025
 21
1211.410250069398
 31
0.0
  0
SOLID
  5
E8
330
EC
100
AcDbEntity
  8
0
  6
ByBlock
 62
     0
100
AcDbTrace
 10
-310.5828541230247
 20
1211.410250069398
 30
0.0
 11
-308.0828541230247
 21
1210.993583402732
 31
0.0
 12
-308.0828541230247
 22
1211.826916736065
 32
0.0
 13
-308.0828541230247
 23
1211.826916736065
 33
0.0
  0
SOLID
  5
E9
330
EC
100
AcDbEntity
  8
0
  6
ByBlock
 62
     0
100
AcDbTrace
 10
310.582854123025
 20
1211.410250069398
 30
0.0
 11
308.082854123025
 21
1210.993583402732
 31
0.0
 12
308.082854123025
 22
1211.826916736065
 32
0.0
 13
308.082854123025
 23
1211.826916736065
 33
0.0
  0
MTEXT
  5
EA
330
EC
100
AcDbEntity
  8
0
  6
ByBlock
 62
     0
100
AcDbMText
 10
0.0000000000001137
 20
1223.735250069399
 30
0.0
 40
20.0
 41
0.0
 71
     5
 72
     1
  1
\A1;621,17
 73
     1
 44
1.0
  0
ENDBLK
  5
446
330
EC
100
AcDbEntity
  8
Info
100
AcDbBlockEnd
  0
BLOCK
  5
447
330
F8
100
AcDbEntity
  8
0
100
AcDbBlockBegin
  2
*D10
 70
     1
 71
     0
 10
0.0
 20
0.0
 30
0.0
  3
*D10
  1

  0
POINT
  5
EF
330
F8
100
AcDbEntity
  8
DEFPOINTS
  6
ByBlock
 62
     0
100
AcDbPoint
 10
-207.0552360820157
 20
772.7406610312519
 30
0.0
  0
POINT
  5
F0
330
F8
100
AcDbEntity
  8
DEFPOINTS
  6
ByBlock
 62
     0
100
AcDbPoint
 10
207.0552360820166
 20
772.7406610312547
 30
0.0
  0
LINE
  5
F1
330
F8
100
AcDbEntity
  8
0
  6
ByBlock
 62
     0
370
    -2
100
AcDbLine
 10
-207.0552360820157
 20
772.1156610312519
 30
0.0
 11
-207.0552360820157
 21
699.7158906700776
 31
0.0
  0
LINE
  5
F2
330
F8
100
AcDbEntity
  8
0
  6
ByBlock
 62
     0
370
    -2
100
AcDbLine
 10
207.0552360820166
 20
772.1156610312547
 30
0.0
 11
207.0552360820166
 21
699.7158906700776
 31
0.0
  0
LINE
  5
F3
330
F8
100
AcDbEntity
  8
0
  6
ByBlock
 62
     0
370
    -2
100
AcDbLine
 10
-204.5552360820157
 20
700.9658906700776
 30
0.0
 11
204.5552360820166
 21
700.9658906700776
 31
0.0
  0
SOLID
  5
F4
330
F8
100
AcDbEntity
  8
0
  6
ByBlock
 62
     0
100
AcDbTrace
 10
-207.0552360820157
 20
700.9658906700776
 30
0.0
 11
-204.5552360820157
 21
700.5492240034108
 31
0.0
 12
-204.5552360820157
 22
701.3825573367443
 32
0.0
 13
-204.5552360820157
 23
701.3825573367443
 33
0.0
  0
SOLID
  5
F5
330
F8
100
AcDbEntity
  8
0
  6
ByBlock
 62
     0
100
AcDbTrace
 10
207.0552360820166
 20
700.9658906700776
 30
0.0
 11
204.5552360820166
 21
700.5492240034108
 31
0.0
 12
204.5552360820166
 22
701.3825573367443
 32
0.0
 13
204.5552360820166
 23
701.3825573367443
 33
0.0
  0
MTEXT
  5
F6
330
F8
100
AcDbEntity
  8
0
  6
ByBlock
 62
     0
100
AcDbMText
 10
0.0000000000004263
 20
713.2908906700775
 30
0.0
 40
20.0
 41
0.0
 71
     5
 72
     1
  1
\A1;414,11
 73
     1
 44
1.0
  0
ENDBLK
  5
448
330
F8
100
AcDbEntity
  8
Info
100
AcDbBlockEnd
  0
BLOCK
  5
449
330
104
100
AcDbEntity
  8
0
100
AcDbBlockBegin
  2
*D11
 70
     1
 71
     0
 10
0.0
 20
0.0
 30
0.0
  3
*D11
  1

  0
POINT
  5
FB
330
104
100
AcDbEntity
  8
DEFPOINTS
  6
ByBlock
 62
     0
100
AcDbPoint
 10
310.5828541230249
 20
1159.110991546882
 30
0.0
  0
POINT
  5
FC
330
104
100
AcDbEntity
  8
DEFPOINTS
  6
ByBlock
 62
     0
100
AcDbPoint
 10
207.0552360820166
 20
772.7406610312547
 30
0.0
  0
LINE
  5
FD
330
104
100
AcDbEntity
  8
0
  6
ByBlock
 62
     0
370
    -2
100
AcDbLine
 10
311.1865577644556
 20
1158.949229643693
 30
0.0
 11
393.7190184481961
 21
1136.834723454131
 31
0.0
  0
LINE
  5
FE
330
104
100
AcDbEntity
  8
0
  6
ByBlock
 62
     0
370
    -2
100
AcDbLine
 10
207.6589397234473
 20
772.5788991280656
 30
0.0
 11
290.1914004071879
 21
750.4643929385039
 31
0.0
  0
LINE
  5
FF
330
104
100
AcDbEntity
  8
0
  6
ByBlock
 62
     0
370
    -2
100
AcDbLine
 10
391.8645635525785
 20
1134.743432694787
 30
0.0
 11
289.6310407370829
 21
753.2027313106048
 31
0.0
  0
SOLID
  5
100
330
104
100
AcDbEntity
  8
0
  6
ByBlock
 62
     0
100
AcDbTrace
 10
392.5116111653348
 20
1137.158247260509
 30
0.0
 11
391.4620944582913
 21
1134.851273963579
 31
0.0
 12
392.2670326468657
 22
1134.635591425994
 32
0.0
 13
392.2670326468657
 23
1134.635591425994
 33
0.0
  0
SOLID
  5
101
330
104
100
AcDbEntity
  8
0
  6
ByBlock
 62
     0
100
AcDbTrace
 10
288.9839931243266
 20
750.7879167448821
 30
0.0
 11
289.2285716427957
 21
753.3105725793976
 31
0.0
 12
290.0335098313701
 22
753.0948900418121
 32
0.0
 13
290.0335098313701
 23
753.0948900418121
 33
0.0
  0
MTEXT
  5
102
330
104
100
AcDbEntity
  8
0
  6
ByBlock
 62
     0
100
AcDbMText
 10
330.4848402405093
 20
946.72303435691
 30
0.0
 40
20.0
 41
0.0
 71
     5
 72
     1
  1
\A1;400
 11
0.2588190451025205
 21
0.9659258262890683
 31
0.0
 73
     1
 44
1.0
  0
ENDBLK
  5
44A
330
104
100
AcDbEntity
  8
Info
100
AcDbBlockEnd
  0
BLOCK
  5
44B
330
110
100
AcDbEntity
  8
0
100
AcDbBlockBegin
  2
*D12
 70
     1
 71
     0
 10
0.0
 20
0.0
 30
0.0
  3
*D12
  1

  0
POINT
  5
107
330
110
100
AcDbEntity
  8
DEFPOINTS
  6
ByBlock
 62
     0
100
AcDbPoint
 10
-310.5828541230247
 20
1159.110991546882
 30
0.0
  0
POINT
  5
108
330
110
100
AcDbEntity
  8
DEFPOINTS
  6
ByBlock
 62
     0
100
AcDbPoint
 10
-207.0552360820157
 20
772.7406610312519
 30
0.0
  0
LINE
  5
109
330
110
100
AcDbEntity
  8
0
  6
ByBlock
 62
     0
370
    -2
100
AcDbLine
 10
-311.1865577644554
 20
1158.949229643693
 30
0.0
 11
-395.3715523798292
 21
1136.391928321685
 31
0.0
  0
LINE
  5
10A
330
110
100
AcDbEntity
  8
0
  6
ByBlock
 62
     0
370
    -2
100
AcDbLine
 10
-207.6589397234464
 20
772.5788991280629
 30
0.0
 11
-291.8439343388204
 21
750.021597806055
 31
0.0
  0
LINE
  5
10B
330
110
100
AcDbEntity
  8
0
  6
ByBlock
 62
     0
370
    -2
100
AcDbLine
 10
-393.5170974842116
 20
1134.300637562341
 30
0.0
 11
-291.2835746687154
 21
752.7599361781558
 31
0.0
  0
SOLID
  5
10C
330
110
100
AcDbEntity
  8
0
  6
ByBlock
 62
     0
100
AcDbTrace
 10
-394.1641450969679
 20
1136.715452128063
 30
0.0
 11
-393.9195665784988
 21
1134.192796293548
 31
0.0
 12
-393.1146283899244
 22
1134.408478831133
 32
0.0
 13
-393.1146283899244
 23
1134.408478831133
 33
0.0
  0
SOLID
  5
10D
330
110
100
AcDbEntity
  8
0
  6
ByBlock
 62
     0
100
AcDbTrace
 10
-290.6365270559591
 20
750.3451216124331
 30
0.0
 11
-291.6860437630025
 21
752.6520949093631
 31
0.0
 12
-290.8811055744282
 22
752.8677774469486
 32
0.0
 13
-290.8811055744282
 23
752.8677774469486
 33
0.0
  0
MTEXT
  5
10E
330
110
100
AcDbEntity
  8
0
  6
ByBlock
 62
     0
100
AcDbMText
 10
-332.1373741721421
 20
946.2802392244624
 30
0.0
 40
20.0
 41
0.0
 71
     5
 72
     1
  1
\A1;400
 11
0.2588190451025203
 21
-0.9659258262890684
 31
0.0
 73
     1
 44
1.0
  0
ENDBLK
  5
44C
330
110
100
AcDbEntity
  8
Info
100
AcDbBlockEnd
  0
BLOCK
  5
44D
330
11C
100
AcDbEntity
  8
0
100
AcDbBlockBegin
  2
*D13
 70
     1
 71
     0
 10
0.0
 20
0.0
 30
0.0
  3
*D13
  1

  0
MTEXT
  5
113
330
11C
100
AcDbEntity
  8
0
  6
ByBlock
 62
     0
100
AcDbMText
 10
-158.8219792682489
 20
835.599465125719
 30
0.0
 40
20.0
 41
0.0
 71
     5
 72
     1
  1
\A1;105,00%%d
 11
0.7933533402912373
 21
-0.6087614290087179
 31
0.0
 73
     1
 44
1.0
  0
POINT
  5
114
330
11C
100
AcDbEntity
  8
DEFPOINTS
  6
ByBlock
 62
     0
100
AcDbPoint
 10
207.0552360820165
 20
772.7406610312546
 30
0.0
  0
POINT
  5
115
330
11C
100
AcDbEntity
  8
DEFPOINTS
  6
ByBlock
 62
     0
100
AcDbPoint
 10
-207.0552360820157
 20
772.7406610312519
 30
0.0
  0
POINT
  5
116
330
11C
100
AcDbEntity
  8
DEFPOINTS
  6
ByBlock
 62
     0
100
AcDbPoint
 10
-310.5828541230247
 20
1159.110991546882
 30
0.0
  0
POINT
  5
117
330
11C
100
AcDbEntity
  8
DEFPOINTS
  6
ByBlock
 62
     0
100
AcDbPoint
 10
-207.0552360820273
 20
772.7406610312518
 30
0.0
  0
SOLID
  5
118
330
11C
100
AcDbEntity
  8
0
  6
ByBlock
 62
     0
100
AcDbTrace
 10
-224.8119795791659
 20
839.0097299395845
 30
0.0
 11
-222.4862672710985
 21
840.0170399073774
 31
0.0
 12
-222.2852863252233
 22
839.2083056470423
 32
0.0
 13
-222.2852863252233
 23
839.2083056470423
 33
0.0
  0
SOLID
  5
119
330
11C
100
AcDbEntity
  8
0
  6
ByBlock
 62
     0
100
AcDbTrace
 10
-138.4484475432644
 20
772.7406610312522
 30
0.0
 11
-138.9105944742097
 21
775.2326544753305
 31
0.0
 12
-138.077399469052
 22
775.2478376181193
 32
0.0
 13
-138.077399469052
 23
775.2478376181193
 33
0.0
  0
ARC
  5
11A
330
11C
100
AcDbEntity
  8
0
  6
ByBlock
 62
     0
370
    -2
100
AcDbCircle
 10
-207.0552360820157
 20
772.7406610312518
 30
0.0
 40
68.60678853875133
100
AcDbArc
 50
2.087947533774464
 51
102.912052466226
  0
ENDBLK
  5
44E
330
11C
100
AcDbEntity
  8
Info
100
AcDbBlockEnd
  0
BLOCK
  5
44F
330
128
100
AcDbEntity
  8
0
100
AcDbBlockBegin
  2
*D14
 70
     1
 71
     0
 10
0.0
 20
0.0
 30
0.0
  3
*D14
  1

  0
MTEXT
  5
11F
330
128
100
AcDbEntity
  8
0
  6
ByBlock
 62
     0
100
AcDbMText
 10
154.1967218728734
 20
841.6272179192971
 30
0.0
 40
20.0
 41
0.0
 71
     5
 72
     1
  1
\A1;105,00%%d
 11
0.7933533402912335
 21
0.6087614290087229
 31
0.0
 73
     1
 44
1.0
  0
POINT
  5
120
330
128
100
AcDbEntity
  8
DEFPOINTS
  6
ByBlock
 62
     0
100
AcDbPoint
 10
310.5828541230249
 20
1159.110991546882
 30
0.0
  0
POINT
  5
121
330
128
100
AcDbEntity
  8
DEFPOINTS
  6
ByBlock
 62
     0
100
AcDbPoint
 10
-207.0552360820273
 20
772.7406610312518
 30
0.0
  0
POINT
  5
122
330
128
100
AcDbEntity
  8
DEFPOINTS
  6
ByBlock
 62
     0
100
AcDbPoint
 10
207.0552360820165
 20
772.7406610312546
 30
0.0
  0
POINT
  5
123
330
128
100
AcDbEntity
  8
DEFPOINTS
  6
ByBlock
 62
     0
100
AcDbPoint
 10
207.0552360820166
 20
772.7406610312547
 30
0.0
  0
SOLID
  5
124
330
128
100
AcDbEntity
  8
0
  6
ByBlock
 62
     0
100
AcDbTrace
 10
226.7784390908574
 20
846.3486567482439
 30
0.0
 11
224.2521107863012
 21
846.5518227117052
 31
0.0
 12
224.4545607368593
 22
847.3601904881311
 32
0.0
 13
224.4545607368593
 23
847.3601904881311
 33
0.0
  0
SOLID
  5
125
330
128
100
AcDbEntity
  8
0
  6
ByBlock
 62
     0
100
AcDbTrace
 10
130.8506314284901
 20
772.7406610312542
 30
0.0
 11
130.4750288414865
 21
775.2471593471817
 31
0.0
 12
131.3082500567607
 22
775.2334900069704
 32
0.0
 13
131.3082500567607
 23
775.2334900069704
 33
0.0
  0
ARC
  5
126
330
128
100
AcDbEntity
  8
0
  6
ByBlock
 62
     0
370
    -2
100
AcDbCircle
 10
207.0552360820166
 20
772.7406610312546
 30
0.0
 40
76.20460465352647
100
AcDbArc
 50
76.87975350927064
 51
178.1202464907297
  0
ENDBLK
  5
450
330
128
100
AcDbEntity
  8
Info
100
AcDbBlockEnd
  0
BLOCK
  5
451
330
131
100
AcDbEntity
  8
0
100
AcDbBlockBegin
  2
*D15
 70
     1
 71
     0
 10
0.0
 20
0.0
 30
0.0
  3
*D15
  1

  0
LINE
  5
12B
330
131
100
AcDbEntity
  8
0
  6
ByBlock
 62
     0
370
    -2
100
AcDbLine
 10
104.4713471453548
 20
992.0141065658505
 30
0.0
 11
88.41946178773699
 21
839.5924412303788
 31
0.0
  0
SOLID
  5
12C
330
131
100
AcDbEntity
  8
0
  6
ByBlock
 62
     0
100
AcDbTrace
 10
104.7331800955938
 20
994.5003574594992
 30
0.0
 11
104.8857222942964
 21
991.9704677408107
 31
0.0
 12
104.0569719964133
 22
992.0577453908903
 32
0.0
 13
104.0569719964133
 23
992.0577453908903
 33
0.0
  0
MTEXT
  5
12D
330
131
100
AcDbEntity
  8
0
  6
ByBlock
 62
     0
100
AcDbMText
 10
81.9296345249507
 20
879.4161576830053
 30
0.0
 40
20.0
 41
0.0
 71
     5
 72
     1
  1
\A1;R1000
 11
0.1047331800955906
 21
0.9945003574594956
 31
0.0
 73
     1
 44
1.0
  0
POINT
  5
12E
330
131
100
AcDbEntity
  8
DEFPOINTS
  6
ByBlock
 62
     0
100
AcDbPoint
 10
0.0000000000028015
 20
-0.0000000000004265
 30
0.0
  0
POINT
  5
12F
330
131
100
AcDbEntity
  8
DEFPOINTS
  6
ByBlock
 62
     0
100
AcDbPoint
 10
104.7331800955938
 20
994.5003574594992
 30
0.0
  0
ENDBLK
  5
452
330
131
100
AcDbEntity
  8
Info
100
AcDbBlockEnd
  0
BLOCK
  5
453
330
149
100
AcDbEntity
  8
0
100
AcDbBlockBegin
  2
*D16
 70
     1
 71
     0
 10
0.0
 20
0.0
 30
0.0
  3
*D16
  1

  0
MTEXT
  5
140
330
149
100
AcDbEntity
  8
0
  6
ByBlock
 62
     0
100
AcDbMText
 10
0.0000000000000626
 20
119.5721482449447
 30
0.0
 40
20.0
 41
0.0
 71
     5
 72
     1
  1
\A1;28,75%%d
 73
     1
 44
1.0
  0
POINT
  5
141
330
149
100
AcDbEntity
  8
DEFPOINTS
  6
ByBlock
 62
     0
100
AcDbPoint
 10
180.0
 20
-200.0
 30
0.0
  0
POINT
  5
142
330
149
100
AcDbEntity
  8
DEFPOINTS
  6
ByBlock
 62
     0
100
AcDbPoint
 10
-282.5
 20
200.0
 30
0.0
  0
POINT
  5
143
330
149
100
AcDbEntity
  8
DEFPOINTS
  6
ByBlock
 62
     0
100
AcDbPoint
 10
-180.0
 20
-200.0
 30
0.0
  0
POINT
  5
144
330
149
100
AcDbEntity
  8
DEFPOINTS
  6
ByBlock
 62
     0
100
AcDbPoint
 10
282.5
 20
200.0
 30
0.0
  0
SOLID
  5
145
330
149
100
AcDbEntity
  8
0
  6
ByBlock
 62
     0
100
AcDbTrace
 10
251.0560697538849
 20
77.29197952735596
 30
0.0
 11
248.5306215028332
 21
77.50580712700293
 31
0.0
 12
248.7364817108837
 22
78.31331317601192
 32
0.0
 13
248.7364817108837
 23
78.31331317601192
 33
0.0
  0
SOLID
  5
146
330
149
100
AcDbEntity
  8
0
  6
ByBlock
 62
     0
100
AcDbTrace
 10
-251.056069753885
 20
77.29197952735596
 30
0.0
 11
-248.7364817108838
 21
78.31331317601187
 31
0.0
 12
-248.5306215028333
 22
77.50580712700288
 32
0.0
 13
-248.5306215028333
 23
77.50580712700288
 33
0.0
  0
ARC
  5
147
330
149
100
AcDbEntity
  8
0
  6
ByBlock
 62
     0
370
    -2
100
AcDbCircle
 10
0.0
 20
-902.439024390244
 30
0.0
 40
1011.386172635189
100
AcDbArc
 50
75.76884821248919
 51
104.2311517875108
  0
ENDBLK
  5
454
330
149
100
AcDbEntity
  8
0
100
AcDbBlockEnd
  0
BLOCK
  5
455
330
156
100
AcDbEntity
  8
0
100
AcDbBlockBegin
  2
*D17
 70
     1
 71
     0
 10
0.0
 20
0.0
 30
0.0
  3
*D17
  1

  0
LINE
  5
150
330
156
100
AcDbEntity
  8
0
  6
ByBlock
 62
     0
370
    -2
100
AcDbLine
 10
449.9634236720679
 20
-90.02282121274514
 30
0.0
 11
304.4192425595958
 21
-351.4503538767496
 31
0.0
  0
SOLID
  5
151
330
156
100
AcDbEntity
  8
0
  6
ByBlock
 62
     0
100
AcDbTrace
 10
451.1794884661524
 20
-87.83851665142858
 30
0.0
 11
450.3274744322874
 21
-90.22549867842592
 31
0.0
 12
449.5993729118484
 22
-89.82014374706436
 32
0.0
 13
449.5993729118484
 23
-89.82014374706436
 33
0.0
  0
MTEXT
  5
152
330
156
100
AcDbEntity
  8
0
  6
ByBlock
 62
     0
100
AcDbMText
 10
327.8845730786946
 20
-287.4587566656356
 30
0.0
 40
20.0
 41
0.0
 71
     5
 72
     1
  1
\A1;\U+22051855,08
 11
0.4864259176337782
 21
0.8737218245266263
 31
0.0
 73
     1
 44
1.0
  0
POINT
  5
153
330
156
100
AcDbEntity
  8
DEFPOINTS
  6
ByBlock
 62
     0
100
AcDbPoint
 10
-451.1794884661525
 20
-1708.662373115538
 30
0.0
  0
POINT
  5
154
330
156
100
AcDbEntity
  8
DEFPOINTS
  6
ByBlock
 62
     0
100
AcDbPoint
 10
451.1794884661524
 20
-87.83851665142858
 30
0.0
  0
ENDBLK
  5
456
330
156
100
AcDbEntity
  8
0
100
AcDbBlockEnd
  0
BLOCK
  5
457
330
16E
100
AcDbEntity
  8
0
100
AcDbBlockBegin
  2
*D18
 70
     1
 71
     0
 10
0.0
 20
0.0
 30
0.0
  3
*D18
  1

  0
POINT
  5
165
330
16E
100
AcDbEntity
  8
DEFPOINTS
  6
ByBlock
 62
     0
100
AcDbPoint
 10
-284.7009496127727
 20
1062.518408917975
 30
0.0
  0
POINT
  5
166
330
16E
100
AcDbEntity
  8
DEFPOINTS
  6
ByBlock
 62
     0
100
AcDbPoint
 10
284.7009496127728
 20
1062.518408917975
 30
0.0
  0
LINE
  5
167
330
16E
100
AcDbEntity
  8
0
  6
ByBlock
 62
     0
370
    -2
100
AcDbLine
 10
-284.7009496127727
 20
1063.143408917975
 30
0.0
 11
-284.7009496127727
 21
1088.591249384324
 31
0.0
  0
LINE
  5
168
330
16E
100
AcDbEntity
  8
0
  6
ByBlock
 62
     0
370
    -2
100
AcDbLine
 10
284.7009496127728
 20
1063.143408917975
 30
0.0
 11
284.7009496127728
 21
1088.591249384324
 31
0.0
  0
LINE
  5
169
330
16E
100
AcDbEntity
  8
0
  6
ByBlock
 62
     0
370
    -2
100
AcDbLine
 10
-282.2009496127727
 20
1087.341249384324
 30
0.0
 11
282.2009496127728
 21
1087.341249384324
 31
0.0
  0
SOLID
  5
16A
330
16E
100
AcDbEntity
  8
0
  6
ByBlock
 62
     0
100
AcDbTrace
 10
-284.7009496127727
 20
1087.341249384324
 30
0.0
 11
-282.2009496127727
 21
1086.924582717657
 31
0.0
 12
-282.2009496127727
 22
1087.757916050991
 32
0.0
 13
-282.2009496127727
 23
1087.757916050991
 33
0.0
  0
SOLID
  5
16B
330
16E
100
AcDbEntity
  8
0
  6
ByBlock
 62
     0
100
AcDbTrace
 10
284.7009496127728
 20
1087.341249384324
 30
0.0
 11
282.2009496127728
 21
1086.924582717657
 31
0.0
 12
282.2009496127728
 22
1087.757916050991
 32
0.0
 13
282.2009496127728
 23
1087.757916050991
 33
0.0
  0
MTEXT
  5
16C
330
16E
100
AcDbEntity
  8
0
  6
ByBlock
 62
     0
100
AcDbMText
 10
0.0000000000000568
 20
1099.666249384324
 30
0.0
 40
20.0
 41
0.0
 71
     5
 72
     1
  1
\A1;569,4
 73
     1
 44
1.0
  0
ENDBLK
  5
458
330
16E
100
AcDbEntity
  8
Info
100
AcDbBlockEnd
  0
BLOCK
  5
459
330
17A
100
AcDbEntity
  8
0
100
AcDbBlockBegin
  2
*D19
 70
     1
 71
     0
 10
0.0
 20
0.0
 30
0.0
  3
*D19
  1

  0
POINT
  5
171
330
17A
100
AcDbEntity
  8
DEFPOINTS
  6
ByBlock
 62
     0
100
AcDbPoint
 10
-181.1733315717638
 20
676.1480784023454
 30
0.0
  0
POINT
  5
172
330
17A
100
AcDbEntity
  8
DEFPOINTS
  6
ByBlock
 62
     0
100
AcDbPoint
 10
181.1733315717645
 20
676.1480784023478
 30
0.0
  0
LINE
  5
173
330
17A
100
AcDbEntity
  8
0
  6
ByBlock
 62
     0
370
    -2
100
AcDbLine
 10
-181.1733315717638
 20
675.5230784023454
 30
0.0
 11
-181.1733315717638
 21
614.2661556805847
 31
0.0
  0
LINE
  5
174
330
17A
100
AcDbEntity
  8
0
  6
ByBlock
 62
     0
370
    -2
100
AcDbLine
 10
181.1733315717645
 20
675.5230784023478
 30
0.0
 11
181.1733315717645
 21
614.2661556805847
 31
0.0
  0
LINE
  5
175
330
17A
100
AcDbEntity
  8
0
  6
ByBlock
 62
     0
370
    -2
100
AcDbLine
 10
-178.6733315717638
 20
615.5161556805847
 30
0.0
 11
178.6733315717645
 21
615.5161556805847
 31
0.0
  0
SOLID
  5
176
330
17A
100
AcDbEntity
  8
0
  6
ByBlock
 62
     0
100
AcDbTrace
 10
-181.1733315717638
 20
615.5161556805847
 30
0.0
 11
-178.6733315717638
 21
615.099489013918
 31
0.0
 12
-178.6733315717638
 22
615.9328223472514
 32
0.0
 13
-178.6733315717638
 23
615.9328223472514
 33
0.0
  0
SOLID
  5
177
330
17A
100
AcDbEntity
  8
0
  6
ByBlock
 62
     0
100
AcDbTrace
 10
181.1733315717645
 20
615.5161556805847
 30
0.0
 11
178.6733315717645
 21
615.099489013918
 31
0.0
 12
178.6733315717645
 22
615.9328223472514
 32
0.0
 13
178.6733315717645
 23
615.9328223472514
 33
0.0
  0
MTEXT
  5
178
330
17A
100
AcDbEntity
  8
0
  6
ByBlock
 62
     0
100
AcDbMText
 10
0.0000000000003695
 20
627.8411556805847
 30
0.0
 40
20.0
 41
0.0
 71
     5
 72
     1
  1
\A1;362,35
 73
     1
 44
1.0
  0
ENDBLK
  5
45A
330
17A
100
AcDbEntity
  8
Info
100
AcDbBlockEnd
  0
BLOCK
  5
45B
330
186
100
AcDbEntity
  8
0
100
AcDbBlockBegin
  2
*D20
 70
     1
 71
     0
 10
0.0
 20
0.0
 30
0.0
  3
*D20
  1

  0
POINT
  5
17D
330
186
100
AcDbEntity
  8
DEFPOINTS
  6
ByBlock
 62
     0
100
AcDbPoint
 10
284.7009496127728
 20
1062.518408917975
 30
0.0
  0
POINT
  5
17E
330
186
100
AcDbEntity
  8
DEFPOINTS
  6
ByBlock
 62
     0
100
AcDbPoint
 10
181.1733315717645
 20
676.1480784023478
 30
0.0
  0
LINE
  5
17F
330
186
100
AcDbEntity
  8
0
  6
ByBlock
 62
     0
370
    -2
100
AcDbLine
 10
285.3046532542035
 20
1062.356647014786
 30
0.0
 11
335.4794381659111
 21
1048.912353917289
 31
0.0
  0
LINE
  5
180
330
186
100
AcDbEntity
  8
0
  6
ByBlock
 62
     0
370
    -2
100
AcDbLine
 10
181.7770352131952
 20
675.9863164991587
 30
0.0
 11
231.9518201249028
 21
662.5420234016614
 31
0.0
  0
LINE
  5
181
330
186
100
AcDbEntity
  8
0
  6
ByBlock
 62
     0
370
    -2
100
AcDbLine
 10
333.6249832702935
 20
1046.821063157944
 30
0.0
 11
231.3914604547978
 21
665.2803617737621
 31
0.0
  0
SOLID
  5
182
330
186
100
AcDbEntity
  8
0
  6
ByBlock
 62
     0
100
AcDbTrace
 10
334.2720308830498
 20
1049.235877723667
 30
0.0
 11
333.2225141760063
 21
1046.928904426737
 31
0.0
 12
334.0274523645807
 22
1046.713221889152
 32
0.0
 13
334.0274523645807
 23
1046.713221889152
 33
0.0
  0
SOLID
  5
183
330
186
100
AcDbEntity
  8
0
  6
ByBlock
 62
     0
100
AcDbTrace
 10
230.7444128420415
 20
662.8655472080395
 30
0.0
 11
230.9889913605106
 21
665.3882030425549
 31
0.0
 12
231.793929549085
 22
665.1725205049695
 32
0.0
 13
231.793929549085
 23
665.1725205049695
 33
0.0
  0
MTEXT
  5
184
330
186
100
AcDbEntity
  8
0
  6
ByBlock
 62
     0
100
AcDbMText
 10
272.2452599582243
 20
858.8006648200675
 30
0.0
 40
20.0
 41
0.0
 71
     5
 72
     1
  1
\A1;400
 11
0.2588190451025205
 21
0.9659258262890683
 31
0.0
 73
     1
 44
1.0
  0
ENDBLK
  5
45C
330
186
100
AcDbEntity
  8
Info
100
AcDbBlockEnd
  0
BLOCK
  5
45D
330
192
100
AcDbEntity
  8
0
100
AcDbBlockBegin
  2
*D21
 70
     1
 71
     0
 10
0.0
 20
0.0
 30
0.0
  3
*D21
  1

  0
POINT
  5
189
330
192
100
AcDbEntity
  8
DEFPOINTS
  6
ByBlock
 62
     0
100
AcDbPoint
 10
-284.7009496127727
 20
1062.518408917975
 30
0.0
  0
POINT
  5
18A
330
192
100
AcDbEntity
  8
DEFPOINTS
  6
ByBlock
 62
     0
100
AcDbPoint
 10
-181.1733315717638
 20
676.1480784023454
 30
0.0
  0
LINE
  5
18B
330
192
100
AcDbEntity
  8
0
  6
ByBlock
 62
     0
370
    -2
100
AcDbLine
 10
-285.3046532542034
 20
1062.356647014786
 30
0.0
 11
-354.1771640342157
 21
1043.902313370578
 31
0.0
  0
LINE
  5
18C
330
192
100
AcDbEntity
  8
0
  6
ByBlock
 62
     0
370
    -2
100
AcDbLine
 10
-181.7770352131944
 20
675.9863164991564
 30
0.0
 11
-250.6495459932069
 21
657.5319828549482
 31
0.0
  0
LINE
  5
18D
330
192
100
AcDbEntity
  8
0
  6
ByBlock
 62
     0
370
    -2
100
AcDbLine
 10
-352.3227091385981
 20
1041.811022611234
 30
0.0
 11
-250.0891863231019
 21
660.2703212270491
 31
0.0
  0
SOLID
  5
18E
330
192
100
AcDbEntity
  8
0
  6
ByBlock
 62
     0
100
AcDbTrace
 10
-352.9697567513544
 20
1044.225837176956
 30
0.0
 11
-352.7251782328853
 21
1041.703181342441
 31
0.0
 12
-351.9202400443109
 22
1041.918863880026
 32
0.0
 13
-351.9202400443109
 23
1041.918863880026
 33
0.0
  0
SOLID
  5
18F
330
192
100
AcDbEntity
  8
0
  6
ByBlock
 62
     0
100
AcDbTrace
 10
-249.4421387103456
 20
657.8555066613263
 30
0.0
 11
-250.4916554173891
 21
660.1624799582563
 31
0.0
 12
-249.6867172288147
 22
660.3781624958418
 32
0.0
 13
-249.6867172288147
 23
660.3781624958418
 33
0.0
  0
MTEXT
  5
190
330
192
100
AcDbEntity
  8
0
  6
ByBlock
 62
     0
100
AcDbMText
 10
-290.9429858265286
 20
853.7906242733556
 30
0.0
 40
20.0
 41
0.0
 71
     5
 72
     1
  1
\A1;400
 11
0.2588190451025203
 21
-0.9659258262890684
 31
0.0
 73
     1
 44
1.0
  0
ENDBLK
  5
45E
330
192
100
AcDbEntity
  8
Info
100
AcDbBlockEnd
  0
BLOCK
  5
45F
330
19B
100
AcDbEntity
  8
0
100
AcDbBlockBegin
  2
*D22
 70
     1
 71
     0
 10
0.0
 20
0.0
 30
0.0
  3
*D22
  1

  0
LINE
  5
195
330
19B
100
AcDbEntity
  8
0
  6
ByBlock
 62
     0
370
    -2
100
AcDbLine
 10
127.7104451491751
 20
888.3672057205801
 30
0.0
 11
114.1516373718959
 21
794.0507215525498
 31
0.0
  0
SOLID
  5
196
330
19B
100
AcDbEntity
  8
0
  6
ByBlock
 62
     0
100
AcDbTrace
 10
128.0661845507049
 20
890.8417661821973
 30
0.0
 11
128.1228718927781
 21
888.3079158203251
 31
0.0
 12
127.2980184055722
 22
888.426495620835
 32
0.0
 13
127.2980184055722
 23
888.426495620835
 33
0.0
  0
MTEXT
  5
197
330
19B
100
AcDbEntity
  8
0
  6
ByBlock
 62
     0
100
AcDbMText
 10
108.4621390887811
 20
829.1423994731969
 30
0.0
 40
20.0
 41
0.0
 71
     5
 72
     1
  1
\A1;R900
 11
0.1422957606118921
 21
0.9898241846468913
 31
0.0
 73
     1
 44
1.0
  0
POINT
  5
198
330
19B
100
AcDbEntity
  8
DEFPOINTS
  6
ByBlock
 62
     0
100
AcDbPoint
 10
0.0000000000025609
 20
-0.0000000000008226
 30
0.0
  0
POINT
  5
199
330
19B
100
AcDbEntity
  8
DEFPOINTS
  6
ByBlock
 62
     0
100
AcDbPoint
 10
128.0661845507049
 20
890.8417661821973
 30
0.0
  0
ENDBLK
  5
460
330
19B
100
AcDbEntity
  8
Info
100
AcDbBlockEnd
  0
BLOCK
  5
461
330
1A7
100
AcDbEntity
  8
0
100
AcDbBlockBegin
  2
*D23
 70
     1
 71
     0
 10
0.0
 20
0.0
 30
0.0
  3
*D23
  1

  0
MTEXT
  5
19E
330
1A7
100
AcDbEntity
  8
0
  6
ByBlock
 62
     0
100
AcDbMText
 10
129.2139451210354
 20
743.8628691821991
 30
0.0
 40
20.0
 41
0.0
 71
     5
 72
     1
  1
\A1;105,00%%d
 11
0.7933533402912332
 21
0.6087614290087232
 31
0.0
 73
     1
 44
1.0
  0
POINT
  5
19F
330
1A7
100
AcDbEntity
  8
DEFPOINTS
  6
ByBlock
 62
     0
100
AcDbPoint
 10
284.7009496127728
 20
1062.518408917975
 30
0.0
  0
POINT
  5
1A0
330
1A7
100
AcDbEntity
  8
DEFPOINTS
  6
ByBlock
 62
     0
100
AcDbPoint
 10
-181.1733315717739
 20
676.1480784023453
 30
0.0
  0
POINT
  5
1A1
330
1A7
100
AcDbEntity
  8
DEFPOINTS
  6
ByBlock
 62
     0
100
AcDbPoint
 10
181.1733315717645
 20
676.1480784023478
 30
0.0
  0
POINT
  5
1A2
330
1A7
100
AcDbEntity
  8
DEFPOINTS
  6
ByBlock
 62
     0
100
AcDbPoint
 10
181.1733315717645
 20
676.1480784023478
 30
0.0
  0
SOLID
  5
1A3
330
1A7
100
AcDbEntity
  8
0
  6
ByBlock
 62
     0
100
AcDbTrace
 10
200.5142643237055
 20
748.3294220983643
 30
0.0
 11
197.987870275166
 21
748.5317688863685
 31
0.0
 12
198.1900581009263
 22
749.3402022649217
 32
0.0
 13
198.1900581009263
 23
749.3402022649217
 33
0.0
  0
SOLID
  5
1A4
330
1A7
100
AcDbEntity
  8
0
  6
ByBlock
 62
     0
100
AcDbTrace
 10
106.4457057732852
 20
676.1480784023473
 30
0.0
 11
106.0709159409076
 21
678.6546983760684
 31
0.0
 12
106.9041326800809
 22
678.6407588636654
 32
0.0
 13
106.9041326800809
 23
678.6407588636654
 33
0.0
  0
ARC
  5
1A5
330
1A7
100
AcDbEntity
  8
0
  6
ByBlock
 62
     0
370
    -2
100
AcDbCircle
 10
181.1733315717646
 20
676.1480784023478
 30
0.0
 40
74.72762579847938
100
AcDbArc
 50
76.91690995102916
 51
178.0830900489712
  0
ENDBLK
  5
462
330
1A7
100
AcDbEntity
  8
Info
100
AcDbBlockEnd
  0
BLOCK
  5
463
330
1B3
100
AcDbEntity
  8
0
100
AcDbBlockBegin
  2
*D24
 70
     1
 71
     0
 10
0.0
 20
0.0
 30
0.0
  3
*D24
  1

  0
MTEXT
  5
1AA
330
1B3
100
AcDbEntity
  8
0
  6
ByBlock
 62
     0
100
AcDbMText
 10
-131.9980996493642
 20
740.2344883589677
 30
0.0
 40
20.0
 41
0.0
 71
     5
 72
     1
  1
\A1;105,00%%d
 11
0.7933533402912378
 21
-0.6087614290087172
 31
0.0
 73
     1
 44
1.0
  0
POINT
  5
1AB
330
1B3
100
AcDbEntity
  8
DEFPOINTS
  6
ByBlock
 62
     0
100
AcDbPoint
 10
181.1733315717645
 20
676.1480784023478
 30
0.0
  0
POINT
  5
1AC
330
1B3
100
AcDbEntity
  8
DEFPOINTS
  6
ByBlock
 62
     0
100
AcDbPoint
 10
-181.1733315717638
 20
676.1480784023454
 30
0.0
  0
POINT
  5
1AD
330
1B3
100
AcDbEntity
  8
DEFPOINTS
  6
ByBlock
 62
     0
100
AcDbPoint
 10
-284.7009496127727
 20
1062.518408917975
 30
0.0
  0
POINT
  5
1AE
330
1B3
100
AcDbEntity
  8
DEFPOINTS
  6
ByBlock
 62
     0
100
AcDbPoint
 10
-181.1733315717739
 20
676.1480784023453
 30
0.0
  0
SOLID
  5
1AF
330
1B3
100
AcDbEntity
  8
0
  6
ByBlock
 62
     0
100
AcDbTrace
 10
-199.3305621669938
 20
743.911785508488
 30
0.0
 11
-197.0052549166753
 21
744.9200301726083
 31
0.0
 12
-196.8039489310318
 22
744.1113767582282
 32
0.0
 13
-196.8039489310318
 23
744.1113767582282
 33
0.0
  0
SOLID
  5
1B0
330
1B3
100
AcDbEntity
  8
0
  6
ByBlock
 62
     0
100
AcDbTrace
 10
-111.0191797084886
 20
676.1480784023457
 30
0.0
 11
-111.4803249907385
 21
678.6402573966738
 31
0.0
 12
-110.6471239502941
 22
678.655105650683
 32
0.0
 13
-110.6471239502941
 23
678.655105650683
 33
0.0
  0
ARC
  5
1B1
330
1B3
100
AcDbEntity
  8
0
  6
ByBlock
 62
     0
370
    -2
100
AcDbCircle
 10
-181.1733315717638
 20
676.1480784023453
 30
0.0
 40
70.15415186327512
100
AcDbArc
 50
2.041889543009064
 51
102.9581104569913
  0
ENDBLK
  5
464
330
1B3
100
AcDbEntity
  8
Info
100
AcDbBlockEnd
  0
BLOCK
  5
465
330
1C4
100
AcDbEntity
  8
0
100
AcDbBlockBegin
  2
*D25
 70
     1
 71
     0
 10
0.0
 20
0.0
 30
0.0
  3
*D25
  1

  0
MTEXT
  5
1BB
330
1C4
100
AcDbEntity
  8
0
  6
ByBlock
 62
     0
100
AcDbMText
 10
0.0000000000000881
 20
948.39077829425
 30
0.0
 40
20.0
 41
0.0
 71
     5
 72
     1
  1
\A1;30,00%%d
 73
     1
 44
1.0
  0
POINT
  5
1BC
330
1C4
100
AcDbEntity
  8
DEFPOINTS
  6
ByBlock
 62
     0
100
AcDbPoint
 10
-284.7009496127727
 20
1062.518408917975
 30
0.0
  0
POINT
  5
1BD
330
1C4
100
AcDbEntity
  8
DEFPOINTS
  6
ByBlock
 62
     0
100
AcDbPoint
 10
181.1733315717645
 20
676.1480784023478
 30
0.0
  0
POINT
  5
1BE
330
1C4
100
AcDbEntity
  8
DEFPOINTS
  6
ByBlock
 62
     0
100
AcDbPoint
 10
284.7009496127728
 20
1062.518408917975
 30
0.0
  0
POINT
  5
1BF
330
1C4
100
AcDbEntity
  8
DEFPOINTS
  6
ByBlock
 62
     0
100
AcDbPoint
 10
-181.1733315717638
 20
676.1480784023454
 30
0.0
  0
SOLID
  5
1C0
330
1C4
100
AcDbEntity
  8
0
  6
ByBlock
 62
     0
100
AcDbTrace
 10
242.71164326794
 20
905.8121842644847
 30
0.0
 11
240.1886636622476
 21
906.0533999778442
 31
0.0
 12
240.4032730614828
 22
906.858624946536
 32
0.0
 13
240.4032730614828
 23
906.858624946536
 33
0.0
  0
SOLID
  5
1C1
330
1C4
100
AcDbEntity
  8
0
  6
ByBlock
 62
     0
100
AcDbTrace
 10
-242.7116432679398
 20
905.8121842644847
 30
0.0
 11
-240.4032730614826
 21
906.858624946536
 31
0.0
 12
-240.1886636622475
 22
906.0533999778442
 32
0.0
 13
-240.1886636622475
 23
906.0533999778442
 33
0.0
  0
ARC
  5
1C2
330
1C4
100
AcDbEntity
  8
0
  6
ByBlock
 62
     0
370
    -2
100
AcDbCircle
 10
0.0000000000000301
 20
0.0000000000000445
 30
0.0
 40
937.76577829425
100
AcDbArc
 50
75.15274548774914
 51
104.8472545122509
  0
ENDBLK
  5
466
330
1C4
100
AcDbEntity
  8
Info
100
AcDbBlockEnd
  0
BLOCK
  5
467
330
1CF
100
AcDbEntity
  8
0
100
AcDbBlockBegin
  2
*D26
 70
     1
 71
     0
 10
0.0
 20
0.0
 30
0.0
  3
*D26
  1

  0
MTEXT
  5
1C6
330
1CF
100
AcDbEntity
  8
0
  6
ByBlock
 62
     0
100
AcDbMText
 10
2.579011240392613
 20
859.4148905007079
 30
0.0
 40
20.0
 41
0.0
 71
     5
 72
     1
  1
\A1;30,00%%d
 73
     1
 44
1.0
  0
POINT
  5
1C7
330
1CF
100
AcDbEntity
  8
DEFPOINTS
  6
ByBlock
 62
     0
100
AcDbPoint
 10
-282.1219383723802
 20
973.5425211244331
 30
0.0
  0
POINT
  5
1C8
330
1CF
100
AcDbEntity
  8
DEFPOINTS
  6
ByBlock
 62
     0
100
AcDbPoint
 10
183.7523428121571
 20
587.1721906088056
 30
0.0
  0
POINT
  5
1C9
330
1CF
100
AcDbEntity
  8
DEFPOINTS
  6
ByBlock
 62
     0
100
AcDbPoint
 10
287.2799608531653
 20
973.5425211244331
 30
0.0
  0
POINT
  5
1CA
330
1CF
100
AcDbEntity
  8
DEFPOINTS
  6
ByBlock
 62
     0
100
AcDbPoint
 10
-178.5943203313713
 20
587.1721906088033
 30
0.0
  0
SOLID
  5
1CB
330
1CF
100
AcDbEntity
  8
0
  6
ByBlock
 62
     0
100
AcDbTrace
 10
245.2906545083326
 20
816.8362964709426
 30
0.0
 11
242.7676749026402
 21
817.077512184302
 31
0.0
 12
242.9822843018754
 22
817.8827371529939
 32
0.0
 13
242.9822843018754
 23
817.8827371529939
 33
0.0
  0
SOLID
  5
1CC
330
1CF
100
AcDbEntity
  8
0
  6
ByBlock
 62
     0
100
AcDbTrace
 10
-240.1326320275475
 20
816.8362964709426
 30
0.0
 11
-237.8242618210903
 21
817.8827371529939
 31
0.0
 12
-237.6096524218551
 22
817.077512184302
 32
0.0
 13
-237.6096524218551
 23
817.077512184302
 33
0.0
  0
ARC
  5
1CD
330
1CF
100
AcDbEntity
  8
0
  6
ByBlock
 62
     0
370
    -2
100
AcDbCircle
 10
2.579011240392616
 20
-88.97588779354211
 30
0.0
 40
937.76577829425
100
AcDbArc
 50
75.15274548774914
 51
104.8472545122509
  0
ENDBLK
  5
468
330
1CF
100
AcDbEntity
  8
Info
100
AcDbBlockEnd
  0
BLOCK
  5
469
330
1D7
100
AcDbEntity
  8
0
100
AcDbBlockBegin
  2
*D27
 70
     1
 71
     0
 10
0.0
 20
0.0
 30
0.0
  3
*D27
  1

  0
LINE
  5
1D1
330
1D7
100
AcDbEntity
  8
0
  6
ByBlock
 62
     0
370
    -2
100
AcDbLine
 10
60.9898179502814
 20
895.4253135278078
 30
0.0
 11
47.77134686341064
 21
701.3576147691585
 31
0.0
  0
SOLID
  5
1D2
330
1D7
100
AcDbEntity
  8
0
  6
ByBlock
 62
     0
100
AcDbTrace
 10
61.1597060225663
 20
897.9195344568547
 30
0.0
 11
61.40552143845596
 21
895.3969988490936
 31
0.0
 12
60.57411446210684
 22
895.453628206522
 32
0.0
 13
60.57411446210684
 23
895.453628206522
 33
0.0
  0
MTEXT
  5
1D3
330
1D7
100
AcDbEntity
  8
0
  6
ByBlock
 62
     0
100
AcDbMText
 10
39.47628905586758
 20
735.9262170835351
 30
0.0
 40
20.0
 41
0.0
 71
     5
 72
     1
  1
\A1;R900
 11
0.06795522891396025
 21
0.9976883716187391
 31
0.0
 73
     1
 44
1.0
  0
POINT
  5
1D4
330
1D7
100
AcDbEntity
  8
DEFPOINTS
  6
ByBlock
 62
     0
100
AcDbPoint
 10
0.0000000000025609
 20
-0.0000000000008226
 30
0.0
  0
POINT
  5
1D5
330
1D7
100
AcDbEntity
  8
DEFPOINTS
  6
ByBlock
 62
     0
100
AcDbPoint
 10
61.1597060225663
 20
897.9195344568547
 30
0.0
  0
ENDBLK
  5
46A
330
1D7
100
AcDbEntity
  8
Info
100
AcDbBlockEnd
  0
BLOCK
  5
46B
330
1E3
100
AcDbEntity
  8
0
100
AcDbBlockBegin
  2
*D28
 70
     1
 71
     0
 10
0.0
 20
0.0
 30
0.0
  3
*D28
  1

  0
MTEXT
  5
1DA
330
1E3
100
AcDbEntity
  8
0
  6
ByBlock
 62
     0
100
AcDbMText
 10
0.0000000000000826
 20
858.0391088405537
 30
0.0
 40
20.0
 41
0.0
 71
     5
 72
     1
  1
\A1;30,00%%d
 73
     1
 44
1.0
  0
POINT
  5
1DB
330
1E3
100
AcDbEntity
  8
DEFPOINTS
  6
ByBlock
 62
     0
100
AcDbPoint
 10
-284.7009496127727
 20
1062.518408917975
 30
0.0
  0
POINT
  5
1DC
330
1E3
100
AcDbEntity
  8
DEFPOINTS
  6
ByBlock
 62
     0
100
AcDbPoint
 10
181.1733315717645
 20
676.1480784023478
 30
0.0
  0
POINT
  5
1DD
330
1E3
100
AcDbEntity
  8
DEFPOINTS
  6
ByBlock
 62
     0
100
AcDbPoint
 10
284.7009496127728
 20
1062.518408917975
 30
0.0
  0
POINT
  5
1DE
330
1E3
100
AcDbEntity
  8
DEFPOINTS
  6
ByBlock
 62
     0
100
AcDbPoint
 10
-181.1733315717638
 20
676.1480784023454
 30
0.0
  0
SOLID
  5
1DF
330
1E3
100
AcDbEntity
  8
0
  6
ByBlock
 62
     0
100
AcDbTrace
 10
219.3269104565157
 20
818.5391732908263
 30
0.0
 11
216.8038965946193
 21
818.7800304347716
 31
0.0
 12
217.0183915527582
 22
819.5852858957142
 32
0.0
 13
217.0183915527582
 23
819.5852858957142
 33
0.0
  0
SOLID
  5
1E0
330
1E3
100
AcDbEntity
  8
0
  6
ByBlock
 62
     0
100
AcDbTrace
 10
-219.3269104565156
 20
818.5391732908263
 30
0.0
 11
-217.018391552758
 21
819.5852858957143
 31
0.0
 12
-216.8038965946191
 22
818.7800304347717
 32
0.0
 13
-216.8038965946191
 23
818.7800304347717
 33
0.0
  0
ARC
  5
1E1
330
1E3
100
AcDbEntity
  8
0
  6
ByBlock
 62
     0
370
    -2
100
AcDbCircle
 10
0.0000000000000301
 20
0.0000000000000445
 30
0.0
 40
847.4141088405537
100
AcDbArc
 50
75.16903129088009
 51
104.8309687091199
  0
ENDBLK
  5
46C
330
1E3
100
AcDbEntity
  8
Info
100
AcDbBlockEnd
  0
BLOCK
  5
46D
330
281
100
AcDbEntity
  8
0
100
AcDbBlockBegin
  2
*D29
 70
     1
 71
     0
 10
0.0
 20
0.0
 30
0.0
  3
*D29
  1

  0
POINT
  5
278
330
281
100
AcDbEntity
  8
DEFPOINTS
  6
ByBlock
 62
     0
100
AcDbPoint
 10
285.3046532542035
 20
1062.356647014786
 30
0.0
  0
POINT
  5
279
330
281
100
AcDbEntity
  8
DEFPOINTS
  6
ByBlock
 62
     0
100
AcDbPoint
 10
854.706552479749
 20
1062.356647014786
 30
0.0
  0
LINE
  5
27A
330
281
100
AcDbEntity
  8
0
  6
ByBlock
 62
     0
370
    -2
100
AcDbLine
 10
285.3046532542035
 20
1062.981647014786
 30
0.0
 11
285.3046532542035
 21
1088.429487481135
 31
0.0
  0
LINE
  5
27B
330
281
100
AcDbEntity
  8
0
  6
ByBlock
 62
     0
370
    -2
100
AcDbLine
 10
854.706552479749
 20
1062.981647014786
 30
0.0
 11
854.706552479749
 21
1088.429487481135
 31
0.0
  0
LINE
  5
27C
330
281
100
AcDbEntity
  8
0
  6
ByBlock
 62
     0
370
    -2
100
AcDbLine
 10
287.8046532542035
 20
1087.179487481135
 30
0.0
 11
852.206552479749
 21
1087.179487481135
 31
0.0
  0
SOLID
  5
27D
330
281
100
AcDbEntity
  8
0
  6
ByBlock
 62
     0
100
AcDbTrace
 10
285.3046532542035
 20
1087.179487481135
 30
0.0
 11
287.8046532542035
 21
1086.762820814468
 31
0.0
 12
287.8046532542035
 22
1087.596154147802
 32
0.0
 13
287.8046532542035
 23
1087.596154147802
 33
0.0
  0
SOLID
  5
27E
330
281
100
AcDbEntity
  8
0
  6
ByBlock
 62
     0
100
AcDbTrace
 10
854.706552479749
 20
1087.179487481135
 30
0.0
 11
852.206552479749
 21
1086.762820814468
 31
0.0
 12
852.206552479749
 22
1087.596154147802
 32
0.0
 13
852.206552479749
 23
1087.596154147802
 33
0.0
  0
MTEXT
  5
27F
330
281
100
AcDbEntity
  8
0
  6
ByBlock
 62
     0
100
AcDbMText
 10
570.0056028669762
 20
1099.504487481135
 30
0.0
 40
20.0
 41
0.0
 71
     5
 72
     1
  1
\A1;569,4
 73
     1
 44
1.0
  0
ENDBLK
  5
46E
330
281
100
AcDbEntity
  8
0
100
AcDbBlockEnd
  0
BLOCK
  5
46F
330
28D
100
AcDbEntity
  8
0
100
AcDbBlockBegin
  2
*D30
 70
     1
 71
     0
 10
0.0
 20
0.0
 30
0.0
  3
*D30
  1

  0
POINT
  5
284
330
28D
100
AcDbEntity
  8
DEFPOINTS
  6
ByBlock
 62
     0
100
AcDbPoint
 10
388.8322712952124
 20
675.9863164991564
 30
0.0
  0
POINT
  5
285
330
28D
100
AcDbEntity
  8
DEFPOINTS
  6
ByBlock
 62
     0
100
AcDbPoint
 10
751.1789344387407
 20
675.9863164991588
 30
0.0
  0
LINE
  5
286
330
28D
100
AcDbEntity
  8
0
  6
ByBlock
 62
     0
370
    -2
100
AcDbLine
 10
388.8322712952124
 20
675.3613164991564
 30
0.0
 11
388.8322712952124
 21
614.1043937773957
 31
0.0
  0
LINE
  5
287
330
28D
100
AcDbEntity
  8
0
  6
ByBlock
 62
     0
370
    -2
100
AcDbLine
 10
751.1789344387407
 20
675.3613164991588
 30
0.0
 11
751.1789344387407
 21
614.1043937773957
 31
0.0
  0
LINE
  5
288
330
28D
100
AcDbEntity
  8
0
  6
ByBlock
 62
     0
370
    -2
100
AcDbLine
 10
391.3322712952124
 20
615.3543937773957
 30
0.0
 11
748.6789344387407
 21
615.3543937773957
 31
0.0
  0
SOLID
  5
289
330
28D
100
AcDbEntity
  8
0
  6
ByBlock
 62
     0
100
AcDbTrace
 10
388.8322712952124
 20
615.3543937773957
 30
0.0
 11
391.3322712952124
 21
614.9377271107289
 31
0.0
 12
391.3322712952124
 22
615.7710604440624
 32
0.0
 13
391.3322712952124
 23
615.7710604440624
 33
0.0
  0
SOLID
  5
28A
330
28D
100
AcDbEntity
  8
0
  6
ByBlock
 62
     0
100
AcDbTrace
 10
751.1789344387407
 20
615.3543937773957
 30
0.0
 11
748.6789344387407
 21
614.9377271107289
 31
0.0
 12
748.6789344387407
 22
615.7710604440624
 32
0.0
 13
748.6789344387407
 23
615.7710604440624
 33
0.0
  0
MTEXT
  5
28B
330
28D
100
AcDbEntity
  8
0
  6
ByBlock
 62
     0
100
AcDbMText
 10
570.0056028669766
 20
627.6793937773957
 30
0.0
 40
20.0
 41
0.0
 71
     5
 72
     1
  1
\A1;362,35
 73
     1
 44
1.0
  0
ENDBLK
  5
470
330
28D
100
AcDbEntity
  8
0
100
AcDbBlockEnd
  0
BLOCK
  5
471
330
299
100
AcDbEntity
  8
0
100
AcDbBlockBegin
  2
*D31
 70
     1
 71
     0
 10
0.0
 20
0.0
 30
0.0
  3
*D31
  1

  0
POINT
  5
290
330
299
100
AcDbEntity
  8
DEFPOINTS
  6
ByBlock
 62
     0
100
AcDbPoint
 10
854.706552479749
 20
1062.356647014786
 30
0.0
  0
POINT
  5
291
330
299
100
AcDbEntity
  8
DEFPOINTS
  6
ByBlock
 62
     0
100
AcDbPoint
 10
751.1789344387407
 20
675.9863164991588
 30
0.0
  0
LINE
  5
292
330
299
100
AcDbEntity
  8
0
  6
ByBlock
 62
     0
370
    -2
100
AcDbLine
 10
855.3102561211797
 20
1062.194885111597
 30
0.0
 11
905.4850410328872
 21
1048.7505920141
 31
0.0
  0
LINE
  5
293
330
299
100
AcDbEntity
  8
0
  6
ByBlock
 62
     0
370
    -2
100
AcDbLine
 10
751.7826380801714
 20
675.8245545959696
 30
0.0
 11
801.9574229918791
 21
662.3802614984724
 31
0.0
  0
LINE
  5
294
330
299
100
AcDbEntity
  8
0
  6
ByBlock
 62
     0
370
    -2
100
AcDbLine
 10
903.6305861372696
 20
1046.659301254755
 30
0.0
 11
801.397063321774
 21
665.1185998705731
 31
0.0
  0
SOLID
  5
295
330
299
100
AcDbEntity
  8
0
  6
ByBlock
 62
     0
100
AcDbTrace
 10
904.2776337500259
 20
1049.074115820478
 30
0.0
 11
903.2281170429824
 21
1046.767142523548
 31
0.0
 12
904.0330552315568
 22
1046.551459985962
 32
0.0
 13
904.0330552315568
 23
1046.551459985962
 33
0.0
  0
SOLID
  5
296
330
299
100
AcDbEntity
  8
0
  6
ByBlock
 62
     0
100
AcDbTrace
 10
800.7500157090177
 20
662.7037853048505
 30
0.0
 11
800.9945942274868
 21
665.2264411393659
 31
0.0
 12
801.7995324160612
 22
665.0107586017804
 32
0.0
 13
801.7995324160612
 23
665.0107586017804
 33
0.0
  0
MTEXT
  5
297
330
299
100
AcDbEntity
  8
0
  6
ByBlock
 62
     0
100
AcDbMText
 10
842.2508628252004
 20
858.6389029168784
 30
0.0
 40
20.0
 41
0.0
 71
     5
 72
     1
  1
\A1;400
 11
0.2588190451025205
 21
0.9659258262890683
 31
0.0
 73
     1
 44
1.0
  0
ENDBLK
  5
472
330
299
100
AcDbEntity
  8
0
100
AcDbBlockEnd
  0
BLOCK
  5
473
330
2A5
100
AcDbEntity
  8
0
100
AcDbBlockBegin
  2
*D32
 70
     1
 71
     0
 10
0.0
 20
0.0
 30
0.0
  3
*D32
  1

  0
POINT
  5
29C
330
2A5
100
AcDbEntity
  8
DEFPOINTS
  6
ByBlock
 62
     0
100
AcDbPoint
 10
285.3046532542035
 20
1062.356647014786
 30
0.0
  0
POINT
  5
29D
330
2A5
100
AcDbEntity
  8
DEFPOINTS
  6
ByBlock
 62
     0
100
AcDbPoint
 10
388.8322712952124
 20
675.9863164991564
 30
0.0
  0
LINE
  5
29E
330
2A5
100
AcDbEntity
  8
0
  6
ByBlock
 62
     0
370
    -2
100
AcDbLine
 10
284.7009496127728
 20
1062.194885111597
 30
0.0
 11
215.8284388327606
 21
1043.740551467389
 31
0.0
  0
LINE
  5
29F
330
2A5
100
AcDbEntity
  8
0
  6
ByBlock
 62
     0
370
    -2
100
AcDbLine
 10
388.2285676537817
 20
675.8245545959674
 30
0.0
 11
319.3560568737693
 21
657.3702209517592
 31
0.0
  0
LINE
  5
2A0
330
2A5
100
AcDbEntity
  8
0
  6
ByBlock
 62
     0
370
    -2
100
AcDbLine
 10
217.6828937283782
 20
1041.649260708044
 30
0.0
 11
319.9164165438743
 21
660.1085593238601
 31
0.0
  0
SOLID
  5
2A1
330
2A5
100
AcDbEntity
  8
0
  6
ByBlock
 62
     0
100
AcDbTrace
 10
217.0358461156219
 20
1044.064075273767
 30
0.0
 11
217.280424634091
 21
1041.541419439252
 31
0.0
 12
218.0853628226654
 22
1041.757101976837
 32
0.0
 13
218.0853628226654
 23
1041.757101976837
 33
0.0
  0
SOLID
  5
2A2
330
2A5
100
AcDbEntity
  8
0
  6
ByBlock
 62
     0
100
AcDbTrace
 10
320.5634641566306
 20
657.6937447581373
 30
0.0
 11
319.5139474495871
 21
660.0007180550673
 31
0.0
 12
320.3188856381615
 22
660.2164005926528
 32
0.0
 13
320.3188856381615
 23
660.2164005926528
 33
0.0
  0
MTEXT
  5
2A3
330
2A5
100
AcDbEntity
  8
0
  6
ByBlock
 62
     0
100
AcDbMText
 10
279.0626170404476
 20
853.6288623701664
 30
0.0
 40
20.0
 41
0.0
 71
     5
 72
     1
  1
\A1;400
 11
0.2588190451025203
 21
-0.9659258262890684
 31
0.0
 73
     1
 44
1.0
  0
ENDBLK
  5
474
330
2A5
100
AcDbEntity
  8
0
100
AcDbBlockEnd
  0
BLOCK
  5
475
330
2B1
100
AcDbEntity
  8
0
100
AcDbBlockBegin
  2
*D33
 70
     1
 71
     0
 10
0.0
 20
0.0
 30
0.0
  3
*D33
  1

  0
MTEXT
  5
2A8
330
2B1
100
AcDbEntity
  8
0
  6
ByBlock
 62
     0
100
AcDbMText
 10
699.2195479880116
 20
743.7011072790101
 30
0.0
 40
20.0
 41
0.0
 71
     5
 72
     1
  1
\A1;105,00%%d
 11
0.7933533402912335
 21
0.6087614290087229
 31
0.0
 73
     1
 44
1.0
  0
POINT
  5
2A9
330
2B1
100
AcDbEntity
  8
DEFPOINTS
  6
ByBlock
 62
     0
100
AcDbPoint
 10
854.706552479749
 20
1062.356647014786
 30
0.0
  0
POINT
  5
2AA
330
2B1
100
AcDbEntity
  8
DEFPOINTS
  6
ByBlock
 62
     0
100
AcDbPoint
 10
388.8322712952023
 20
675.9863164991563
 30
0.0
  0
POINT
  5
2AB
330
2B1
100
AcDbEntity
  8
DEFPOINTS
  6
ByBlock
 62
     0
100
AcDbPoint
 10
751.1789344387407
 20
675.9863164991588
 30
0.0
  0
POINT
  5
2AC
330
2B1
100
AcDbEntity
  8
DEFPOINTS
  6
ByBlock
 62
     0
100
AcDbPoint
 10
751.1789344387407
 20
675.9863164991588
 30
0.0
  0
SOLID
  5
2AD
330
2B1
100
AcDbEntity
  8
0
  6
ByBlock
 62
     0
100
AcDbTrace
 10
770.5198671906817
 20
748.1676601951752
 30
0.0
 11
767.9934731421422
 21
748.3700069831795
 31
0.0
 12
768.1956609679025
 22
749.1784403617327
 32
0.0
 13
768.1956609679025
 23
749.1784403617327
 33
0.0
  0
SOLID
  5
2AE
330
2B1
100
AcDbEntity
  8
0
  6
ByBlock
 62
     0
100
AcDbTrace
 10
676.4513086402614
 20
675.9863164991583
 30
0.0
 11
676.0765188078838
 21
678.4929364728794
 31
0.0
 12
676.9097355470572
 22
678.4789969604764
 32
0.0
 13
676.9097355470572
 23
678.4789969604764
 33
0.0
  0
ARC
  5
2AF
330
2B1
100
AcDbEntity
  8
0
  6
ByBlock
 62
     0
370
    -2
100
AcDbCircle
 10
751.1789344387407
 20
675.9863164991588
 30
0.0
 40
74.72762579847934
100
AcDbArc
 50
76.91690995102914
 51
178.0830900489712
  0
ENDBLK
  5
476
330
2B1
100
AcDbEntity
  8
0
100
AcDbBlockEnd
  0
BLOCK
  5
477
330
2BD
100
AcDbEntity
  8
0
100
AcDbBlockBegin
  2
*D34
 70
     1
 71
     0
 10
0.0
 20
0.0
 30
0.0
  3
*D34
  1

  0
MTEXT
  5
2B4
330
2BD
100
AcDbEntity
  8
0
  6
ByBlock
 62
     0
100
AcDbMText
 10
438.007503217612
 20
740.0727264557787
 30
0.0
 40
20.0
 41
0.0
 71
     5
 72
     1
  1
\A1;105,00%%d
 11
0.7933533402912373
 21
-0.6087614290087179
 31
0.0
 73
     1
 44
1.0
  0
POINT
  5
2B5
330
2BD
100
AcDbEntity
  8
DEFPOINTS
  6
ByBlock
 62
     0
100
AcDbPoint
 10
751.1789344387407
 20
675.9863164991588
 30
0.0
  0
POINT
  5
2B6
330
2BD
100
AcDbEntity
  8
DEFPOINTS
  6
ByBlock
 62
     0
100
AcDbPoint
 10
388.8322712952124
 20
675.9863164991564
 30
0.0
  0
POINT
  5
2B7
330
2BD
100
AcDbEntity
  8
DEFPOINTS
  6
ByBlock
 62
     0
100
AcDbPoint
 10
285.3046532542035
 20
1062.356647014786
 30
0.0
  0
POINT
  5
2B8
330
2BD
100
AcDbEntity
  8
DEFPOINTS
  6
ByBlock
 62
     0
100
AcDbPoint
 10
388.8322712952023
 20
675.9863164991563
 30
0.0
  0
SOLID
  5
2B9
330
2BD
100
AcDbEntity
  8
0
  6
ByBlock
 62
     0
100
AcDbTrace
 10
370.6750406999823
 20
743.750023605299
 30
0.0
 11
373.0003479503009
 21
744.7582682694193
 31
0.0
 12
373.2016539359443
 22
743.9496148550392
 32
0.0
 13
373.2016539359443
 23
743.9496148550392
 33
0.0
  0
SOLID
  5
2BA
330
2BD
100
AcDbEntity
  8
0
  6
ByBlock
 62
     0
100
AcDbTrace
 10
458.9864231584875
 20
675.9863164991567
 30
0.0
 11
458.5252778762377
 21
678.4784954934847
 31
0.0
 12
459.358478916682
 22
678.493343747494
 32
0.0
 13
459.358478916682
 23
678.493343747494
 33
0.0
  0
ARC
  5
2BB
330
2BD
100
AcDbEntity
  8
0
  6
ByBlock
 62
     0
370
    -2
100
AcDbCircle
 10
388.8322712952124
 20
675.9863164991563
 30
0.0
 40
70.15415186327512
100
AcDbArc
 50
2.041889543009065
 51
102.9581104569913
  0
ENDBLK
  5
478
330
2BD
100
AcDbEntity
  8
0
100
AcDbBlockEnd
  0
BLOCK
  5
479
330
2CC
100
AcDbEntity
  8
0
100
AcDbBlockBegin
  2
*D35
 70
     1
 71
     0
 10
0.0
 20
0.0
 30
0.0
  3
*D35
  1

  0
MTEXT
  5
2C3
330
2CC
100
AcDbEntity
  8
0
  6
ByBlock
 62
     0
100
AcDbMText
 10
570.0056028669764
 20
857.8773469373647
 30
0.0
 40
20.0
 41
0.0
 71
     5
 72
     1
  1
\A1;30,00%%d
 73
     1
 44
1.0
  0
POINT
  5
2C4
330
2CC
100
AcDbEntity
  8
DEFPOINTS
  6
ByBlock
 62
     0
100
AcDbPoint
 10
285.3046532542035
 20
1062.356647014786
 30
0.0
  0
POINT
  5
2C5
330
2CC
100
AcDbEntity
  8
DEFPOINTS
  6
ByBlock
 62
     0
100
AcDbPoint
 10
751.1789344387407
 20
675.9863164991588
 30
0.0
  0
POINT
  5
2C6
330
2CC
100
AcDbEntity
  8
DEFPOINTS
  6
ByBlock
 62
     0
100
AcDbPoint
 10
854.706552479749
 20
1062.356647014786
 30
0.0
  0
POINT
  5
2C7
330
2CC
100
AcDbEntity
  8
DEFPOINTS
  6
ByBlock
 62
     0
100
AcDbPoint
 10
388.8322712952124
 20
675.9863164991564
 30
0.0
  0
SOLID
  5
2C8
330
2CC
100
AcDbEntity
  8
0
  6
ByBlock
 62
     0
100
AcDbTrace
 10
789.3325133234919
 20
818.3774113876373
 30
0.0
 11
786.8094994615955
 21
818.6182685315825
 31
0.0
 12
787.0239944197343
 22
819.4235239925251
 32
0.0
 13
787.0239944197343
 23
819.4235239925251
 33
0.0
  0
SOLID
  5
2C9
330
2CC
100
AcDbEntity
  8
0
  6
ByBlock
 62
     0
100
AcDbTrace
 10
350.6786924104605
 20
818.3774113876373
 30
0.0
 11
352.987211314218
 21
819.4235239925253
 31
0.0
 12
353.2017062723569
 22
818.6182685315827
 32
0.0
 13
353.2017062723569
 23
818.6182685315827
 33
0.0
  0
ARC
  5
2CA
330
2CC
100
AcDbEntity
  8
0
  6
ByBlock
 62
     0
370
    -2
100
AcDbCircle
 10
570.0056028669762
 20
-0.1617619031887542
 30
0.0
 40
847.4141088405535
100
AcDbArc
 50
75.16903129088009
 51
104.8309687091199
  0
ENDBLK
  5
47A
330
2CC
100
AcDbEntity
  8
0
100
AcDbBlockEnd
  0
BLOCK
  5
47B
330
2D8
100
AcDbEntity
  8
0
100
AcDbBlockBegin
  2
*D36
 70
     1
 71
     0
 10
0.0
 20
0.0
 30
0.0
  3
*D36
  1

  0
POINT
  5
2CF
330
2D8
100
AcDbEntity
  8
DEFPOINTS
  6
ByBlock
 62
     0
100
AcDbPoint
 10
285.3046532542035
 20
1062.356647014786
 30
0.0
  0
POINT
  5
2D0
330
2D8
100
AcDbEntity
  8
DEFPOINTS
  6
ByBlock
 62
     0
100
AcDbPoint
 10
778.4211629466327
 20
777.655697402013
 30
0.0
  0
LINE
  5
2D1
330
2D8
100
AcDbEntity
  8
0
  6
ByBlock
 62
     0
370
    -2
100
AcDbLine
 10
285.6171532542035
 20
1062.897912892151
 30
0.0
 11
298.3410734873781
 21
1084.936389207463
 31
0.0
  0
LINE
  5
2D2
330
2D8
100
AcDbEntity
  8
0
  6
ByBlock
 62
     0
370
    -2
100
AcDbLine
 10
778.7336629466325
 20
778.1969632793782
 30
0.0
 11
791.4575831798072
 21
800.2354395946902
 31
0.0
  0
LINE
  5
2D3
330
2D8
100
AcDbEntity
  8
0
  6
ByBlock
 62
     0
370
    -2
100
AcDbLine
 10
299.8811369968392
 20
1082.603857452733
 30
0.0
 11
788.6675196703461
 21
800.4029078399597
 31
0.0
  0
SOLID
  5
2D4
330
2D8
100
AcDbEntity
  8
0
  6
ByBlock
 62
     0
100
AcDbTrace
 10
297.7160734873781
 20
1083.853857452733
 30
0.0
 11
299.6728036635058
 21
1082.243013534489
 31
0.0
 12
300.0894703301726
 22
1082.964701370976
 32
0.0
 13
300.0894703301726
 23
1082.964701370976
 33
0.0
  0
SOLID
  5
2D5
330
2D8
100
AcDbEntity
  8
0
  6
ByBlock
 62
     0
100
AcDbTrace
 10
790.8325831798072
 20
799.1529078399597
 30
0.0
 11
788.4591863370127
 21
800.0420639217161
 31
0.0
 12
788.8758530036795
 22
800.7637517582033
 32
0.0
 13
788.8758530036795
 23
800.7637517582033
 33
0.0
  0
MTEXT
  5
2D6
330
2D8
100
AcDbEntity
  8
0
  6
ByBlock
 62
     0
100
AcDbMText
 10
550.4368283335926
 20
952.1771457479894
 30
0.0
 40
20.0
 41
0.0
 71
     5
 72
     1
  1
\A1;569,4
 11
0.8660254037844384
 21
-0.5000000000000004
 31
0.0
 73
     1
 44
1.0
  0
ENDBLK
  5
47C
330
2D8
100
AcDbEntity
  8
0
100
AcDbBlockEnd
  0
BLOCK
  5
47D
330
2E3
100
AcDbEntity
  8
0
100
AcDbBlockBegin
  2
*D37
 70
     1
 71
     0
 10
0.0
 20
0.0
 30
0.0
  3
*D37
  1

  0
POINT
  5
2DA
330
2E3
100
AcDbEntity
  8
DEFPOINTS
  6
ByBlock
 62
     0
100
AcDbPoint
 10
778.4211629466327
 20
777.655697402013
 30
0.0
  0
POINT
  5
2DB
330
2E3
100
AcDbEntity
  8
DEFPOINTS
  6
ByBlock
 62
     0
100
AcDbPoint
 10
495.5784504720136
 20
494.8129849273942
 30
0.0
  0
LINE
  5
2DC
330
2E3
100
AcDbEntity
  8
0
  6
ByBlock
 62
     0
370
    -2
100
AcDbLine
 10
778.8631046848742
 20
777.2137556637714
 30
0.0
 11
815.5935964990847
 21
740.4832638495609
 31
0.0
  0
LINE
  5
2DD
330
2E3
100
AcDbEntity
  8
0
  6
ByBlock
 62
     0
370
    -2
100
AcDbLine
 10
496.0203922102552
 20
494.3710431891527
 30
0.0
 11
532.7508840244655
 21
457.6405513749423
 31
0.0
  0
LINE
  5
2DE
330
2E3
100
AcDbEntity
  8
0
  6
ByBlock
 62
     0
370
    -2
100
AcDbLine
 10
812.9419460696352
 20
739.5993803730777
 30
0.0
 11
533.6347675009487
 21
460.2922018043918
 31
0.0
  0
SOLID
  5
2DF
330
2E3
100
AcDbEntity
  8
0
  6
ByBlock
 62
     0
100
AcDbTrace
 10
814.7097130226015
 20
741.367147326044
 30
0.0
 11
812.6473182441407
 21
739.8940081985721
 31
0.0
 12
813.2365738951296
 22
739.3047525475832
 32
0.0
 13
813.2365738951296
 23
739.3047525475832
 33
0.0
  0
SOLID
  5
2E0
330
2E3
100
AcDbEntity
  8
0
  6
ByBlock
 62
     0
100
AcDbTrace
 10
531.8670005479823
 20
458.5244348514254
 30
0.0
 11
533.3401396754542
 21
460.5868296298863
 31
0.0
 12
533.9293953264431
 22
459.9975739788974
 32
0.0
 13
533.9293953264431
 23
459.9975739788974
 33
0.0
  0
MTEXT
  5
2E1
330
2E3
100
AcDbEntity
  8
0
  6
ByBlock
 62
     0
100
AcDbMText
 10
665.7753472351849
 20
607.4588006388418
 30
0.0
 40
20.0
 41
0.0
 71
     5
 72
     1
  1
\A1;400
 11
-0.2588190451025206
 21
-0.9659258262890683
 31
0.0
 73
     1
 44
1.0
  0
ENDBLK
  5
47E
330
2E3
100
AcDbEntity
  8
0
100
AcDbBlockEnd
  0
BLOCK
  5
47F
330
2EE
100
AcDbEntity
  8
0
100
AcDbBlockBegin
  2
*D38
 70
     1
 71
     0
 10
0.0
 20
0.0
 30
0.0
  3
*D38
  1

  0
MTEXT
  5
2E5
330
2EE
100
AcDbEntity
  8
0
  6
ByBlock
 62
     0
100
AcDbMText
 10
429.6232580617075
 20
742.9219037932913
 30
0.0
 40
20.0
 41
0.0
 71
     5
 72
     1
  1
\A1;30,00%%d
 11
0.8660254037844385
 21
-0.5000000000000002
 31
0.0
 73
     1
 44
1.0
  0
POINT
  5
2E6
330
2EE
100
AcDbEntity
  8
DEFPOINTS
  6
ByBlock
 62
     0
100
AcDbPoint
 10
285.3046532542035
 20
1062.356647014786
 30
0.0
  0
POINT
  5
2E7
330
2EE
100
AcDbEntity
  8
DEFPOINTS
  6
ByBlock
 62
     0
100
AcDbPoint
 10
495.5784504720136
 20
494.8129849273942
 30
0.0
  0
POINT
  5
2E8
330
2EE
100
AcDbEntity
  8
DEFPOINTS
  6
ByBlock
 62
     0
100
AcDbPoint
 10
778.4211629466327
 20
777.655697402013
 30
0.0
  0
POINT
  5
2E9
330
2EE
100
AcDbEntity
  8
DEFPOINTS
  6
ByBlock
 62
     0
100
AcDbPoint
 10
181.7770352131944
 20
675.9863164991565
 30
0.0
  0
SOLID
  5
2EA
330
2EE
100
AcDbEntity
  8
0
  6
ByBlock
 62
     0
100
AcDbTrace
 10
599.815966475741
 20
599.0505009311216
 30
0.0
 11
597.7514009492111
 21
600.5205962674095
 31
0.0
 12
598.3397867624143
 22
601.1107204740524
 32
0.0
 13
598.3397867624143
 23
601.1107204740524
 33
0.0
  0
SOLID
  5
2EB
330
2EE
100
AcDbEntity
  8
0
  6
ByBlock
 62
     0
100
AcDbTrace
 10
219.9306140979464
 20
818.3774113876375
 30
0.0
 11
222.4529064161609
 21
818.1291120268107
 31
0.0
 12
222.2360367684217
 22
817.3244928620289
 32
0.0
 13
222.2360367684217
 23
817.3244928620289
 33
0.0
  0
ARC
  5
2EC
330
2EE
100
AcDbEntity
  8
0
  6
ByBlock
 62
     0
370
    -2
100
AcDbCircle
 10
0.6037036414303635
 20
-0.1617619031883998
 30
0.0
 40
847.4141088405534
100
AcDbArc
 50
45.16903129088006
 51
74.8309687091199
  0
ENDBLK
  5
480
330
2EE
100
AcDbEntity
  8
0
100
AcDbBlockEnd
  0
BLOCK
  5
481
330
2F9
100
AcDbEntity
  8
0
100
AcDbBlockBegin
  2
*D39
 70
     1
 71
     0
 10
0.0
 20
0.0
 30
0.0
  3
*D39
  1

  0
MTEXT
  5
2F0
330
2F9
100
AcDbEntity
  8
0
  6
ByBlock
 62
     0
100
AcDbMText
 10
484.437697230555
 20
579.4354071800583
 30
0.0
 40
20.0
 41
0.0
 71
     5
 72
     1
  1
\A1;105,00%%d
 11
0.9914448613738103
 21
0.1305261922200525
 31
0.0
 73
     1
 44
1.0
  0
POINT
  5
2F1
330
2F9
100
AcDbEntity
  8
DEFPOINTS
  6
ByBlock
 62
     0
100
AcDbPoint
 10
778.4211629466327
 20
777.655697402013
 30
0.0
  0
POINT
  5
2F2
330
2F9
100
AcDbEntity
  8
DEFPOINTS
  6
ByBlock
 62
     0
100
AcDbPoint
 10
181.7770352131856
 20
675.9863164991614
 30
0.0
  0
POINT
  5
2F3
330
2F9
100
AcDbEntity
  8
DEFPOINTS
  6
ByBlock
 62
     0
100
AcDbPoint
 10
495.5784504720136
 20
494.8129849273942
 30
0.0
  0
POINT
  5
2F4
330
2F9
100
AcDbEntity
  8
DEFPOINTS
  6
ByBlock
 62
     0
100
AcDbPoint
 10
495.5784504720136
 20
494.8129849273942
 30
0.0
  0
SOLID
  5
2F5
330
2F9
100
AcDbEntity
  8
0
  6
ByBlock
 62
     0
100
AcDbTrace
 10
548.418861416089
 20
547.6533958714697
 30
0.0
 11
546.3321133840861
 21
549.0918303545252
 31
0.0
 12
546.9114298668071
 22
549.6908602847394
 32
0.0
 13
546.9114298668071
 23
549.6908602847394
 33
0.0
  0
SOLID
  5
2F6
330
2F9
100
AcDbEntity
  8
0
  6
ByBlock
 62
     0
100
AcDbTrace
 10
430.8624281660329
 20
532.1767978266335
 30
0.0
 11
431.7911606369743
 21
534.5349893176982
 31
0.0
 12
432.5057777437554
 22
534.1063089762541
 32
0.0
 13
432.5057777437554
 23
534.1063089762541
 33
0.0
  0
ARC
  5
2F7
330
2F9
100
AcDbEntity
  8
0
  6
ByBlock
 62
     0
370
    -2
100
AcDbCircle
 10
495.5784504720135
 20
494.8129849273943
 30
0.0
 40
74.7276257984792
100
AcDbArc
 50
46.91690995102912
 51
148.0830900489712
  0
ENDBLK
  5
482
330
2F9
100
AcDbEntity
  8
0
100
AcDbBlockEnd
  0
BLOCK
  5
483
330
304
100
AcDbEntity
  8
0
100
AcDbBlockBegin
  2
*D40
 70
     1
 71
     0
 10
0.0
 20
0.0
 30
0.0
  3
*D40
  1

  0
POINT
  5
2FB
330
304
100
AcDbEntity
  8
DEFPOINTS
  6
ByBlock
 62
     0
100
AcDbPoint
 10
181.7770352131944
 20
675.9863164991565
 30
0.0
  0
POINT
  5
2FC
330
304
100
AcDbEntity
  8
DEFPOINTS
  6
ByBlock
 62
     0
100
AcDbPoint
 10
495.5784504720136
 20
494.8129849273942
 30
0.0
  0
LINE
  5
2FD
330
304
100
AcDbEntity
  8
0
  6
ByBlock
 62
     0
370
    -2
100
AcDbLine
 10
181.4645352131944
 20
675.4450506217912
 30
0.0
 11
150.8360738523132
 21
622.3949993870841
 31
0.0
  0
LINE
  5
2FE
330
304
100
AcDbEntity
  8
0
  6
ByBlock
 62
     0
370
    -2
100
AcDbLine
 10
495.2659504720136
 20
494.2717190500289
 30
0.0
 11
464.6374891111324
 21
441.2216678153217
 31
0.0
  0
LINE
  5
2FF
330
304
100
AcDbEntity
  8
0
  6
ByBlock
 62
     0
370
    -2
100
AcDbLine
 10
153.6261373617743
 20
622.2275311418147
 30
0.0
 11
463.0974256016712
 21
443.5541995700523
 31
0.0
  0
SOLID
  5
300
330
304
100
AcDbEntity
  8
0
  6
ByBlock
 62
     0
100
AcDbTrace
 10
151.4610738523132
 20
623.4775311418147
 30
0.0
 11
153.417804028441
 21
621.866687223571
 31
0.0
 12
153.8344706951077
 22
622.5883750600582
 32
0.0
 13
153.8344706951077
 23
622.5883750600582
 33
0.0
  0
SOLID
  5
301
330
304
100
AcDbEntity
  8
0
  6
ByBlock
 62
     0
100
AcDbTrace
 10
465.2624891111323
 20
442.3041995700523
 30
0.0
 11
462.8890922683378
 21
443.1933556518086
 31
0.0
 12
463.3057589350046
 22
443.9150434882959
 32
0.0
 13
463.3057589350046
 23
443.9150434882959
 33
0.0
  0
MTEXT
  5
302
330
304
100
AcDbEntity
  8
0
  6
ByBlock
 62
     0
100
AcDbMText
 10
314.5242814817227
 20
543.5646284575767
 30
0.0
 40
20.0
 41
0.0
 71
     5
 72
     1
  1
\A1;362,35
 11
0.8660254037844415
 21
-0.4999999999999951
 31
0.0
 73
     1
 44
1.0
  0
ENDBLK
  5
484
330
304
100
AcDbEntity
  8
0
100
AcDbBlockEnd
  0
BLOCK
  5
485
330
30F
100
AcDbEntity
  8
0
100
AcDbBlockBegin
  2
*D41
 70
     1
 71
     0
 10
0.0
 20
0.0
 30
0.0
  3
*D41
  1

  0
MTEXT
  5
306
330
30F
100
AcDbEntity
  8
0
  6
ByBlock
 62
     0
100
AcDbMText
 10
256.4072402732951
 20
706.8991595977356
 30
0.0
 40
20.0
 41
0.0
 71
     5
 72
     1
  1
\A1;105,00%%d
 11
0.3826834323650935
 21
-0.9238795325112852
 31
0.0
 73
     1
 44
1.0
  0
POINT
  5
307
330
30F
100
AcDbEntity
  8
DEFPOINTS
  6
ByBlock
 62
     0
100
AcDbPoint
 10
495.5784504720136
 20
494.8129849273942
 30
0.0
  0
POINT
  5
308
330
30F
100
AcDbEntity
  8
DEFPOINTS
  6
ByBlock
 62
     0
100
AcDbPoint
 10
181.7770352131944
 20
675.9863164991565
 30
0.0
  0
POINT
  5
309
330
30F
100
AcDbEntity
  8
DEFPOINTS
  6
ByBlock
 62
     0
100
AcDbPoint
 10
285.3046532542035
 20
1062.356647014786
 30
0.0
  0
POINT
  5
30A
330
30F
100
AcDbEntity
  8
DEFPOINTS
  6
ByBlock
 62
     0
100
AcDbPoint
 10
181.7770352131856
 20
675.9863164991614
 30
0.0
  0
SOLID
  5
30B
330
30F
100
AcDbEntity
  8
0
  6
ByBlock
 62
     0
100
AcDbTrace
 10
199.9342658084245
 20
743.750023605299
 30
0.0
 11
202.4521632908647
 21
743.4605354724981
 31
0.0
 12
202.2221726811757
 22
742.659568079966
 32
0.0
 13
202.2221726811757
 23
742.659568079966
 33
0.0
  0
SOLID
  5
30C
330
30F
100
AcDbEntity
  8
0
  6
ByBlock
 62
     0
100
AcDbTrace
 10
242.5323129077423
 20
640.9092405675191
 30
0.0
 11
243.3790388756426
 21
643.2981035285101
 31
0.0
 12
244.1080362701317
 22
642.8943619734617
 32
0.0
 13
244.1080362701317
 23
642.8943619734617
 33
0.0
  0
ARC
  5
30D
330
30F
100
AcDbEntity
  8
0
  6
ByBlock
 62
     0
370
    -2
100
AcDbCircle
 10
181.7770352131944
 20
675.9863164991563
 30
0.0
 40
70.15415186327513
100
AcDbArc
 50
332.0418895430092
 51
72.95811045699125
  0
ENDBLK
  5
486
330
30F
100
AcDbEntity
  8
0
100
AcDbBlockEnd
  0
BLOCK
  5
487
330
31A
100
AcDbEntity
  8
0
100
AcDbBlockBegin
  2
*D42
 70
     1
 71
     0
 10
0.0
 20
0.0
 30
0.0
  3
*D42
  1

  0
POINT
  5
311
330
31A
100
AcDbEntity
  8
DEFPOINTS
  6
ByBlock
 62
     0
100
AcDbPoint
 10
285.3046532542035
 20
1062.356647014786
 30
0.0
  0
POINT
  5
312
330
31A
100
AcDbEntity
  8
DEFPOINTS
  6
ByBlock
 62
     0
100
AcDbPoint
 10
181.7770352131944
 20
675.9863164991565
 30
0.0
  0
LINE
  5
313
330
31A
100
AcDbEntity
  8
0
  6
ByBlock
 62
     0
370
    -2
100
AcDbLine
 10
284.7009496127728
 20
1062.518408917975
 30
0.0
 11
215.8284388327605
 21
1080.972742562183
 31
0.0
  0
LINE
  5
314
330
31A
100
AcDbEntity
  8
0
  6
ByBlock
 62
     0
370
    -2
100
AcDbLine
 10
181.1733315717638
 20
676.1480784023456
 30
0.0
 11
112.3008207917513
 21
694.6024120465537
 31
0.0
  0
LINE
  5
315
330
31A
100
AcDbEntity
  8
0
  6
ByBlock
 62
     0
370
    -2
100
AcDbLine
 10
216.3887985028655
 20
1078.234404190082
 30
0.0
 11
114.155275687369
 21
696.6937028058983
 31
0.0
  0
SOLID
  5
316
330
31A
100
AcDbEntity
  8
0
  6
ByBlock
 62
     0
100
AcDbTrace
 10
217.0358461156219
 20
1080.649218755805
 30
0.0
 11
215.9863294085783
 21
1078.342245458875
 31
0.0
 12
216.7912675971527
 22
1078.12656292129
 32
0.0
 13
216.7912675971527
 23
1078.12656292129
 33
0.0
  0
SOLID
  5
317
330
31A
100
AcDbEntity
  8
0
  6
ByBlock
 62
     0
100
AcDbTrace
 10
113.5082280746127
 20
694.2788882401756
 30
0.0
 11
113.7528065930818
 21
696.801544074691
 31
0.0
 12
114.5577447816562
 22
696.5858615371055
 32
0.0
 13
114.5577447816562
 23
696.5858615371055
 33
0.0
  0
MTEXT
  5
318
330
31A
100
AcDbEntity
  8
0
  6
ByBlock
 62
     0
100
AcDbMText
 10
155.0090751907959
 20
890.2140058522047
 30
0.0
 40
20.0
 41
0.0
 71
     5
 72
     1
  1
\A1;400
 11
0.2588190451025203
 21
-0.9659258262890684
 31
0.0
 73
     1
 44
1.0
  0
ENDBLK
  5
488
330
31A
100
AcDbEntity
  8
0
100
AcDbBlockEnd
  0
ENDSEC
  0
SECTION
  2
ENTITIES
  0
LINE
  5
157
330
1F
100
AcDbEntity
  8
0
100
AcDbLine
 10
-181.1733315717638
 20
676.1480784023454
 30
0.0
 11
-284.7009496127727
 21
1062.518408917975
 31
0.0
  0
LINE
  5
159
330
1F
100
AcDbEntity
  8
0
100
AcDbLine
 10
181.1733315717645
 20
676.1480784023478
 30
0.0
 11
284.7009496127728
 21
1062.518408917975
 31
0.0
  0
LINE
  5
15A
330
1F
100
AcDbEntity
  8
0
100
AcDbLine
 10
284.7009496127728
 20
1062.518408917975
 30
0.0
 11
-284.7009496127727
 21
1062.518408917975
 31
0.0
  0
LINE
  5
15D
330
1F
100
AcDbEntity
  8
0
100
AcDbLine
 10
-181.1733315717739
 20
676.1480784023453
 30
0.0
 11
181.1733315717645
 21
676.1480784023478
 31
0.0
  0
LWPOLYLINE
  5
162
330
1F
100
AcDbEntity
  8
0
100
AcDbPolyline
 90
        2
 70
     0
 43
9.0
 10
232.9371405922687
 20
869.3332436601615
 42
0.1316524975873957
 10
-232.9371405922682
 20
869.3332436601603
 42
7.595754112725182
  0
DIMENSION
  5
163
330
1F
100
AcDbEntity
  8
Info
100
AcDbDimension
  2
*D18
 10
284.7009496127728
 20
1087.341249384324
 30
0.0
 11
0.0000000000000568
 21
1099.666249384324
 31
0.0
 70
    32
 71
   222
 72
   248
 41
0.0
 42
569.4018992255456
  3
ISO-25
100
AcDbAlignedDimension
 13
-284.7009496127727
 23
1062.518408917975
 33
0.0
 14
284.7009496127728
 24
1062.518408917975
 34
0.0
100
AcDbRotatedDimension
1001
ACAD
1000
DSTYLE
1002
{
1070
   140
1040
20.0
1070
   179
1070
     2
1002
}
  0
DIMENSION
  5
16F
330
1F
100
AcDbEntity
  8
Info
100
AcDbDimension
  2
*D19
 10
181.1733315717649
 20
615.5161556805847
 30
0.0
 11
0.0000000000003695
 21
627.8411556805847
 31
0.0
 70
    33
 71
     0
 72
     0
 41
1089.666249384324
 42
362.3466631435283
 53
0.0000000000003775
  3
ISO-25
100
AcDbAlignedDimension
 13
-181.1733315717638
 23
676.1480784023454
 33
0.0
 14
181.1733315717645
 24
676.1480784023478
 34
0.0
1001
ACAD
1000
DSTYLE
1002
{
1070
   140
1040
20.0
1070
   179
1070
     2
1002
}
  0
DIMENSION
  5
187
330
1F
100
AcDbEntity
  8
Info
100
AcDbDimension
  2
*D21
 10
-249.4421387103456
 20
657.8555066613263
 30
0.0
 11
-290.9429858265286
 21
853.7906242733556
 31
0.0
 70
    33
 71
   181
 72
   217
 41
1089.666249384324
 42
400.0000000000023
 53
285.0
  3
ISO-25
100
AcDbAlignedDimension
 13
-284.7009496127727
 23
1062.518408917975
 33
0.0
 14
-181.1733315717638
 24
676.1480784023454
 34
0.0
1001
ACAD
1000
DSTYLE
1002
{
1070
   140
1040
20.0
1070
   179
1070
     2
1002
}
  0
DIMENSION
  5
193
330
1F
100
AcDbEntity
  8
Info
100
AcDbDimension
  2
*D27
 10
0.0000000000025609
 20
-0.0000000000008226
 30
0.0
 11
39.47628905586758
 21
735.9262170835351
 31
0.0
 70
    36
 71
   130
 72
   199
 41
0.0
 42
899.9999999999902
  3
ISO-25
100
AcDbRadialDimension
 15
61.1597060225663
 25
897.9195344568547
 35
0.0
 40
5.0
1001
ACAD
1000
DSTYLE
1002
{
1070
   140
1040
20.0
1070
   179
1070
     2
1002
}
  0
DIMENSION
  5
19C
330
1F
100
AcDbEntity
  8
Info
100
AcDbDimension
  2
*D23
 10
284.7009496127728
 20
1062.518408917975
 30
0.0
 11
129.2139451210354
 21
743.8628691821991
 31
0.0
 70
    34
 71
   122
 72
   245
 41
0.0
 42
1.832595714594053
  3
ISO-25
100
AcDb2LineAngularDimension
 13
-181.1733315717739
 23
676.1480784023453
 33
0.0
 14
181.1733315717645
 24
676.1480784023478
 34
0.0
 15
181.1733315717645
 25
676.1480784023478
 35
0.0
 16
134.4995833435406
 26
734.5071332593785
 36
0.0
1001
ACAD
1000
DSTYLE
1002
{
1070
   140
1040
20.0
1070
   179
1070
     2
1002
}
  0
DIMENSION
  5
1A8
330
1F
100
AcDbEntity
  8
Info
100
AcDbDimension
  2
*D24
 10
181.1733315717645
 20
676.1480784023478
 30
0.0
 11
-131.9980996493642
 21
740.2344883589677
 31
0.0
 70
    34
 71
    22
 72
   172
 41
0.0
 42
1.832595714594039
  3
ISO-25
100
AcDb2LineAngularDimension
 13
-181.1733315717638
 23
676.1480784023454
 33
0.0
 14
-284.7009496127727
 24
1062.518408917975
 34
0.0
 15
-181.1733315717739
 25
676.1480784023453
 35
0.0
 16
-140.7317213169741
 26
733.4724291065195
 36
0.0
1001
ACAD
1000
DSTYLE
1002
{
1070
   140
1040
20.0
1070
   179
1070
     2
1002
}
  0
MTEXT
  5
1B5
330
1F
100
AcDbEntity
  8
Info
100
AcDbMText
 10
-235.2672550788307
 20
1014.603131169177
 30
0.0
 40
20.0
 41
179.4894999999999
 71
     1
 72
     1
  1
fN1G
 11
0.2649101894769435
 21
-0.9642730896956991
 31
0.0
 73
     1
 44
1.0
  0
MTEXT
  5
1B8
330
1F
100
AcDbEntity
  8
0
100
AcDbMText
 10
-104.6094602662688
 20
1050.237075208967
 30
0.0
 40
20.0
 41
413.0898
 71
     1
 72
     1
  1
\C2;\c65535;Brennstoffhandel\PKE
 73
     1
 44
1.0
  0
DIMENSION
  5
1D8
330
1F
100
AcDbEntity
  8
Info
100
AcDbDimension
  2
*D28
 10
-284.7009496127727
 20
1062.518408917975
 30
0.0
 11
0.0000000000000826
 21
858.0391088405537
 31
0.0
 70
    34
 71
    54
 72
    32
 41
2.259762881387173E+137
 42
0.5235987755982989
  3
ISO-25
100
AcDb2LineAngularDimension
 13
181.1733315717645
 23
676.1480784023478
 33
0.0
 14
284.7009496127728
 24
1062.518408917975
 34
0.0
 15
-181.1733315717638
 25
676.1480784023454
 35
0.0
 16
6.233536917643741
 26
847.3911817333989
 36
0.0
1001
ACAD
1000
DSTYLE
1002
{
1070
   140
1040
20.0
1070
   179
1070
     2
1002
}
  0
LWPOLYLINE
  5
1F5
330
1F
100
AcDbEntity
  8
0
100
AcDbPolyline
 90
        3
 70
     0
 43
9.0
 10
-232.9371405922682
 20
869.3332436601603
 10
-7.951024904515141
 20
937.6565751471372
 10
251.8913697011641
 20
937.6565751471372
  0
LINE
  5
271
330
1F
100
AcDbEntity
  8
0
100
AcDbLine
 10
181.7770352131944
 20
675.9863164991565
 30
0.0
 11
285.3046532542035
 21
1062.356647014786
 31
0.0
  0
LINE
  5
272
330
1F
100
AcDbEntity
  8
0
100
AcDbLine
 10
495.5784504720136
 20
494.8129849273942
 30
0.0
 11
778.4211629466327
 21
777.655697402013
 31
0.0
  0
LINE
  5
273
330
1F
100
AcDbEntity
  8
0
100
AcDbLine
 10
778.4211629466327
 20
777.655697402013
 30
0.0
 11
285.3046532542035
 21
1062.356647014786
 31
0.0
  0
LINE
  5
274
330
1F
100
AcDbEntity
  8
0
100
AcDbLine
 10
181.7770352131856
 20
675.9863164991614
 30
0.0
 11
495.5784504720136
 21
494.8129849273942
 31
0.0
  0
LWPOLYLINE
  5
275
330
1F
100
AcDbEntity
  8
0
100
AcDbPolyline
 90
        2
 70
     0
 43
9.0
 10
636.9998067093233
 20
636.2343411647037
 42
0.1316524975873957
 10
233.5408442336991
 20
869.1714817569713
 42
7.595754112725182
  0
DIMENSION
  5
276
330
1F
100
AcDbEntity
  8
Info
100
AcDbDimension
  2
*D36
 10
790.8325831798072
 20
799.1529078399597
 30
0.0
 11
550.4368283335926
 21
952.1771457479894
 31
0.0
 70
    32
 71
     9
 72
     9
 41
0.0
 42
569.4018992255454
 53
330.0
  3
ISO-25
100
AcDbAlignedDimension
 13
285.3046532542035
 23
1062.356647014786
 33
0.0
 14
778.4211629466327
 24
777.655697402013
 34
0.0
 50
330.0
100
AcDbRotatedDimension
1001
ACAD
1000
DSTYLE
1002
{
1070
   140
1040
20.0
1070
   179
1070
     2
1002
}
  0
DIMENSION
  5
282
330
1F
100
AcDbEntity
  8
Info
100
AcDbDimension
  2
*D40
 10
465.2624891111323
 20
442.3041995700523
 30
0.0
 11
314.5242814817227
 21
543.5646284575767
 31
0.0
 70
    33
 71
   255
 72
   255
 41
71.495058
 42
362.3466631435283
 53
330.0000000000003
  3
ISO-25
100
AcDbAlignedDimension
 13
181.7770352131944
 23
675.9863164991565
 33
0.0
 14
495.5784504720136
 24
494.8129849273942
 34
0.0
1001
ACAD
1000
DSTYLE
1002
{
1070
   140
1040
20.0
1070
   179
1070
     2
1002
}
  0
DIMENSION
  5
28E
330
1F
100
AcDbEntity
  8
Info
100
AcDbDimension
  2
*D37
 10
531.8670005479823
 20
458.5244348514254
 30
0.0
 11
665.7753472351849
 21
607.4588006388418
 31
0.0
 70
    33
 71
   225
 72
   146
 41
0.0
 42
399.9999999999998
 53
255.0
  3
ISO-25
100
AcDbAlignedDimension
 13
778.4211629466327
 23
777.655697402013
 33
0.0
 14
495.5784504720136
 24
494.8129849273942
 34
0.0
1001
ACAD
1000
DSTYLE
1002
{
1070
   140
1040
20.0
1070
   179
1070
     2
1002
}
  0
DIMENSION
  5
2A6
330
1F
100
AcDbEntity
  8
Info
100
AcDbDimension
  2
*D39
 10
778.4211629466327
 20
777.655697402013
 30
0.0
 11
484.437697230555
 21
579.4354071800583
 31
0.0
 70
    34
 71
   166
 72
    61
 41
0.0
 42
1.832595714594053
  3
ISO-25
100
AcDb2LineAngularDimension
 13
181.7770352131856
 23
675.9863164991614
 33
0.0
 14
495.5784504720136
 24
494.8129849273942
 34
0.0
 15
495.5784504720136
 25
494.8129849273942
 35
0.0
 16
484.3373262450482
 26
568.6902830885443
 36
0.0
1001
ACAD
1000
DSTYLE
1002
{
1070
   140
1040
20.0
1070
   179
1070
     2
1002
}
  0
DIMENSION
  5
2B2
330
1F
100
AcDbEntity
  8
Info
100
AcDbDimension
  2
*D41
 10
495.5784504720136
 20
494.8129849273942
 30
0.0
 11
256.4072402732951
 21
706.8991595977356
 31
0.0
 70
    34
 71
     4
 72
     0
 41
8.0
 42
1.832595714594039
  3
ISO-25
100
AcDb2LineAngularDimension
 13
181.7770352131944
 23
675.9863164991565
 33
0.0
 14
285.3046532542035
 24
1062.356647014786
 34
0.0
 15
181.7770352131856
 25
675.9863164991614
 35
0.0
 16
245.4626724158786
 26
705.4098553370247
 36
0.0
1001
ACAD
1000
DSTYLE
1002
{
1070
   140
1040
20.0
1070
   179
1070
     2
1002
}
  0
MTEXT
  5
2BF
330
1F
100
AcDbEntity
  8
Info
100
AcDbMText
 10
668.4302178017297
 20
711.1578620286144
 30
0.0
 40
20.00000000000018
 41
179.4894999999998
 71
     1
 72
     1
  1
fN1G
 11
0.7118801059865828
 21
0.70230101430977
 31
0.0
 73
     1
 44
1.0
  0
DIMENSION
  5
2C1
330
1F
100
AcDbEntity
  8
Info
100
AcDbDimension
  2
*D38
 10
285.3046532542035
 20
1062.356647014786
 30
0.0
 11
429.6232580617075
 21
742.9219037932913
 31
0.0
 70
    34
 71
     0
 72
     0
 41
0.0
 42
0.523598775598299
  3
ISO-25
100
AcDb2LineAngularDimension
 13
495.5784504720136
 23
494.8129849273942
 33
0.0
 14
778.4211629466327
 24
777.655697402013
 34
0.0
 15
181.7770352131944
 25
675.9863164991565
 35
0.0
 16
429.6976958342376
 26
730.5837599620285
 36
0.0
1001
ACAD
1000
DSTYLE
1002
{
1070
   140
1040
20.0
1070
   179
1070
     2
1002
}
  0
LWPOLYLINE
  5
325
330
1F
100
AcDbEntity
  8
0
100
AcDbPolyline
 90
        3
 70
     0
 43
9.0
 10
251.8479736551965
 20
937.4946188987401
 10
485.8894876556692
 20
840.3778722003781
 10
658.8019440282772
 20
712.9541085111213
  0
LINE
  5
37F
330
1F
100
AcDbEntity
  8
Bedienraum
100
AcDbLine
 10
-181.1733315717638
 20
676.1480784023454
 30
0.0
 11
0.0000000000025609
 21
-0.0000000000008226
 31
0.0
  0
LINE
  5
380
330
1F
100
AcDbEntity
  8
Bedienraum
100
AcDbLine
 10
0.0000000000025609
 20
-0.0000000000008226
 30
0.0
 11
495.2659504720136
 21
494.2717190500289
 31
0.0
  0
ENDSEC
  0
SECTION
  2
OBJECTS
  0
DICTIONARY
  5
C
330
0
100
AcDbDictionary
281
     1
  3
ACAD_COLOR
350
6C
  3
ACAD_GROUP
350
D
  3
ACAD_LAYOUT
350
1A
  3
ACAD_MATERIAL
350
6B
  3
ACAD_MLINESTYLE
350
17
  3
ACAD_PLOTSETTINGS
350
19
  3
ACAD_PLOTSTYLENAME
350
E
  3
ACAD_TABLESTYLE
350
92
  3
ACDBHEADERROUNDTRIPXREC
350
489
  3
AcDbVariableDictionary
350
59
  3
DWGPROPS
350
48C
  0
DICTIONARY
  5
6C
102
{ACAD_REACTORS
330
C
102
}
330
C
100
AcDbDictionary
281
     1
  0
DICTIONARY
  5
D
102
{ACAD_REACTORS
330
C
102
}
330
C
100
AcDbDictionary
281
     1
  0
DICTIONARY
  5
1A
102
{ACAD_REACTORS
330
C
102
}
330
C
100
AcDbDictionary
281
     1
  3
Layout1
350
74
  3
Layout2
350
28
  3
Model
350
22
  0
DICTIONARY
  5
6B
102
{ACAD_REACTORS
330
C
102
}
330
C
100
AcDbDictionary
281
     1
  0
DICTIONARY
  5
17
102
{ACAD_REACTORS
330
C
102
}
330
C
100
AcDbDictionary
281
     1
  3
Standard
350
18
  0
DICTIONARY
  5
19
102
{ACAD_REACTORS
330
C
102
}
330
C
100
AcDbDictionary
281
     1
  0
ACDBDICTIONARYWDFLT
  5
E
102
{ACAD_REACTORS
330
C
102
}
330
C
100
AcDbDictionary
281
     1
  3
Normal
350
F
100
AcDbDictionaryWithDefault
340
F
  0
DICTIONARY
  5
92
102
{ACAD_REACTORS
330
C
102
}
330
C
100
AcDbDictionary
281
     1
  0
DICTIONARY
  5
489
102
{ACAD_REACTORS
330
C
102
}
330
C
100
AcDbDictionary
281
     1
  3
COLORDICT
350
48A
  3
MATERIALDICT
350
48B
  0
DICTIONARY
  5
59
102
{ACAD_REACTORS
330
C
102
}
330
C
100
AcDbDictionary
281
     1
  0
XRECORD
  5
48C
102
{ACAD_REACTORS
330
C
102
}
330
C
100
AcDbXrecord
280
     1
  1
DWGPROPS COOKIE
  2

  3

  4

  6

  7

  8
fottrem
  9

300
=
301
=
302
=
303
=
304
=
305
=
306
=
307
=
308
=
309
=
 40
0.0
 41
2453353.717125822
 42
4912408.071866667
  1

 90
        0
  0
LAYOUT
  5
74
102
{ACAD_REACTORS
330
1A
102
}
330
1A
100
AcDbPlotSettings
  1

  2
HP C LaserJet 4500-PS
  4
HP C LaserJet 4500-PS
  6

 40
0.0
 41
0.0
 42
0.0
 43
0.0
 44
0.0
 45
0.0
 46
0.0
 47
0.0
 48
0.0
 49
0.0
140
0.0
141
0.0
142
1.0
143
1.0
 70
   688
 72
     0
 73
     0
 74
     5
  7

 75
    16
147
1.0
148
0.0
149
0.0
100
AcDbLayout
  1
Layout1
 70
     1
 71
     1
 10
0.0
 20
0.0
 11
420.0
 21
297.0
 12
0.0
 22
0.0
 32
0.0
 14
1.000000000000000E+20
 24
1.000000000000000E+20
 34
1.000000000000000E+20
 15
-1.000000000000000E+20
 25
-1.000000000000000E+20
 35
-1.000000000000000E+20
146
0.0
 13
0.0
 23
0.0
 33
0.0
 16
1.0
 26
0.0
 36
0.0
 17
0.0
 27
1.0
 37
0.0
 76
     0
330
73
  0
LAYOUT
  5
28
102
{ACAD_REACTORS
330
1A
102
}
330
1A
100
AcDbPlotSettings
  1

  2
HP C LaserJet 4500-PS
  4
HP C LaserJet 4500-PS
  6

 40
0.0
 41
0.0
 42
0.0
 43
0.0
 44
0.0
 45
0.0
 46
0.0
 47
0.0
 48
0.0
 49
0.0
140
0.0
141
0.0
142
1.0
143
1.0
 70
   688
 72
     0
 73
     0
 74
     5
  7

 75
    16
147
1.0
148
0.0
149
0.0
100
AcDbLayout
  1
Layout2
 70
     1
 71
     2
 10
0.0
 20
0.0
 11
12.0
 21
9.0
 12
0.0
 22
0.0
 32
0.0
 14
0.0
 24
0.0
 34
0.0
 15
0.0
 25
0.0
 35
0.0
146
0.0
 13
0.0
 23
0.0
 33
0.0
 16
1.0
 26
0.0
 36
0.0
 17
0.0
 27
1.0
 37
0.0
 76
     0
330
25
  0
LAYOUT
  5
22
102
{ACAD_REACTORS
330
1A
102
}
330
1A
100
AcDbPlotSettings
  1

  2
HP C LaserJet 4500-PS
  4
HP C LaserJet 4500-PS
  6

 40
0.0
 41
0.0
 42
0.0
 43
0.0
 44
0.0
 45
0.0
 46
0.0
 47
0.0
 48
0.0
 49
0.0
140
0.0
141
0.0
142
10.0
143
1.0
 70
 11952
 72
     1
 73
     0
 74
     0
  7

 75
    30
147
1.0
148
0.0
149
0.0
100
AcDbLayout
  1
Model
 70
     1
 71
     0
 10
0.0
 20
0.0
 11
420.0
 21
297.0
 12
0.0
 22
0.0
 32
0.0
 14
-284.7009496127727
 24
-0.0000000000008226
 34
0.0
 15
778.4211629466327
 25
1062.518408917975
 35
0.0
146
0.0
 13
0.0
 23
0.0
 33
0.0
 16
1.0
 26
0.0
 36
0.0
 17
0.0
 27
1.0
 37
0.0
 76
     0
330
1F
  0
MLINESTYLE
  5
18
102
{ACAD_REACTORS
330
17
102
}
330
17
100
AcDbMlineStyle
  2
Standard
 70
     0
  3

 62
   256
 51
90.0
 52
90.0
 71
     2
 49
0.5
 62
   256
  6
BYLAYER
 49
-0.5
 62
   256
  6
BYLAYER
  0
ACDBPLACEHOLDER
  5
F
102
{ACAD_REACTORS
330
E
102
}
330
E
  0
XRECORD
  5
48A
102
{ACAD_REACTORS
330
489
102
}
330
489
100
AcDbXrecord
280
     1
340
6C
  0
XRECORD
  5
48B
102
{ACAD_REACTORS
330
489
102
}
330
489
100
AcDbXrecord
280
     1
340
6B
  0
ENDSEC
  0
SECTION
  2
THUMBNAILIMAGE
 90
    16364
310
28000000B40000005500000001000800000000000000000000000000000000000000000000000000FFFFFF000000FF0000FFFF0000FF0000FFFF0000FF000000FF00FF000000000080808000C0C0C0000000FF007F7FFF000000A5005252A50000007F003F3F7F0000004C0026264C000000260013132600003FFF007F9FFF
310
000029A5005267A500001F7F003F4F7F0000134C00262F4C000009260013172600007FFF007FBFFF000052A500527CA500003F7F003F5F7F0000264C0026394C0000132600131C260000BFFF007FDFFF00007CA5005291A500005F7F003F6F7F0000394C0026424C00001C26001321260000FFFF007FFFFF0000A5A50052A5
310
A500007F7F003F7F7F00004C4C00264C4C00002626001326260000FFBF007FFFDF0000A57C0052A59100007F5F003F7F6F00004C3900264C420000261C001326210000FF7F007FFFBF0000A5520052A57C00007F3F003F7F5F00004C2600264C39000026130013261C0000FF3F007FFF9F0000A5290052A56700007F1F003F
310
7F4F00004C1300264C2F00002609001326170000FF00007FFF7F0000A5000052A55200007F00003F7F3F00004C0000264C260000260000132613003FFF00009FFF7F0029A5000067A552001F7F00004F7F3F00134C00002F4C260009260000172613007FFF0000BFFF7F0052A500007CA552003F7F00005F7F3F00264C0000
310
394C2600132600001C261300BFFF0000DFFF7F007CA5000091A552005F7F00006F7F3F00394C0000424C26001C26000021261300FFFF0000FFFF7F00A5A50000A5A552007F7F00007F7F3F004C4C00004C4C26002626000026261300FFBF0000FFDF7F00A57C0000A59152007F5F00007F6F3F004C3900004C422600261C00
310
0026211300FF7F0000FFBF7F00A5520000A57C52007F3F00007F5F3F004C2600004C39260026130000261C1300FF3F0000FF9F7F00A5290000A56752007F1F00007F4F3F004C1300004C2F26002609000026171300FF000000FF7F7F00A5000000A55252007F0000007F3F3F004C0000004C2626002600000026131300FF00
310
3F00FF7F9F00A5002900A55267007F001F007F3F4F004C0013004C262F002600090026131700FF007F00FF7FBF00A5005200A5527C007F003F007F3F5F004C0026004C2639002600130026131C00FF00BF00FF7FDF00A5007C00A55291007F005F007F3F6F004C0039004C26420026001C0026132100FF00FF00FF7FFF00A5
310
00A500A552A5007F007F007F3F7F004C004C004C264C002600260026132600BF00FF00DF7FFF007C00A5009152A5005F007F006F3F7F0039004C0042264C001C002600211326007F00FF00BF7FFF005200A5007C52A5003F007F005F3F7F0026004C0039264C00130026001C1326003F00FF009F7FFF002900A5006752A500
310
1F007F004F3F7F0013004C002F264C000900260017132600000000002D2D2D005B5B5B0089898900B7B7B700B3B3B30000000000000000000000000000000000000000000000000000000000000000000000000000000000000000000000000000000000000000000000000000000000000000000000000000000000000000
310
00000000000000000000000000000000000000000000000000000000000000000000000000000000000000000000000000000000000000000000000000000000000000000000000000000000000000000000000000000000000000000000000000000000000000000000000000000000000000000000000000000000000000
310
00000000000000000000000000000000000000000000000000000000000000000000000000000000000000000000000000000000000000000000000000000000000000000000000000000000000000000000000000000000000000000000000000000000000000000000000000000000000000000000000000000000000000
310
00000000000000000000000000000000000000000000000000000000000000000000000000000000000000000000000000000000000000000000000000000000000000000000000000000000000000000000000000000000000000000000000000000000000000000000000000000000000000000000000000000000000000
310
00000000000000000000000000000000000000000000000000000000000000000000000000000000000000000000000000000000000000000000000000000000000000000000000000000000000000000000000000000000000000000000000000000000000000000000000000000000000000000000000000000000000000
310
00000000000000000000000000000000000000000000000000000000000000000000000000000000000000000000000000000000000000000000000000000000000000000000000000000000000000000000000000000000000000000000000000000000000000000000000000000000000000000000000000000000000000
310
00000000000000000000000000000000000000000000000000000000000000000000000000000000000000000000000000000000000000000000000000000000000000000000000000000000000000000000000000000000000000000000000000000000000000000000000000000000000000000000000000000000000000
310
00000000000000000000000000000000000000000000000000000000000000000000000000000000000000000000000000000000000000000000000000000000000000000000000000000000000000000000000000000000000000000000000000000000000000000000000000000000000000000000000000000000000000
310
00000000000000000000000000000000000000000000000000000000000000000000000000000000000000000000000000000000000000000000000000000000000000000000000000000000000000000000000000000000000000000000000000000000000000000000000000000000000000000000000000000000000000
310
00000000000000000000000000000000000000000000000000000000000000000000000000000000000000000000000000000000000000000000000000000000000000000000000000000000000000000000000000000000000000000000000000000000000000000000000000000000000000000000000000000000000000
310
00000000000000000000000000000000000000000000000000000000000000000000000000000000000000000000000000000000000000000000000000000000000000000000000000000000000000000000000000000000000000000000000000000000000000000000000000000000000000000000000000000000000000
310
00000000000000000000000000000000000000000000000000000000000000000000000000000000000000000000000000000000000000000000000000000000000000000000000000000000000000000000000000000000000000000000000000000000000000000000000000000000000000000000000000000000000000
310
00000000000000000000000000000000000000000000000000000000000000000000000000000000000000000000000000000000000000000000000000000000000000000000000000000000000000000000000000000000000000000000000000000000000000000000000000000000000000000000000000000000000000
310
00000000000000000000000000000000000000000000000000000000000000000000000000000000000000000000000000000000000000000000000000000000000000000000000000000000000000000000000000000000000000000000000000000000000000000000000000000000000000000000000000000000000000
310
00000000000000000000000000000000000000000000000000000000000000000000000000000000000000000000000000000000000000000000000000000000000000000000000000000000000000000000000000000000000000000000000000000000000000000000000000000000000000000000000000000000000000
310
00000000000000000000000000000000000000000000000000000000000000000000000000000000000000000000000000000000000000000000000000000000000000000000000000000000000000000000000000000000000000000000000000000000000000000000000000000000000000000000000000000000000000
310
00000000000000000000000000000000000000000000000000000000000000000000000000000000000000000000000000000000000000000000000000000000000000000000000000000000000000000000000000000000000000000000000000000000000000000000000000000000000000000000000000000000000000
310
00000000000000000000000000000000000000000000000000000000000000000000000000000000000000000000000000000000000000000000000000000000000000000000000000000000000000000000000000000000000000000000000000000000000000000000000000000000000000000000000000000000000000
310
00000000000000000000000000000000000000000000000000000000000000000000000000000000000000000000000000000000000000000000000000000000000000000000000000000000000000000000000000000000000000000000000000000000000000000000000000000000000000000000000000000000000000
310
00000000000000000000000000000000000000000000000000000000000000000000000000000000000000000000000000000000000000000000000000000000000000000000000000000000000000000000000000000000000000000000000000000000000000000000000000000000000000000000000000000000000000
310
00000000000000000000000000000000000000000000000000000000000000000000000000000000000000000000000000000000000000000000000000000000000000000000000000000000000000000000000000000000000000000000000000000000000000000000000000000000000000000000000000000000000000
310
00000000000000000000000000000000000000000000000000000000000000000000000000000000000000000000000000000000000000000000000000000000000000000000000000000000000000000000000000000000000000000000000000000000000000000000000000000000000000000000000000000000000000
310
00000000000000000000000000000000000000000000000000000000000000000000000000000000000000000000000000000000000000000000000000000000000000000000000000000000000000000000000000000000000000000000000000000000000000000000000000000000000000000000000000000000000000
310
00000000000000000000000000000000000000000000000000000000000000000000000000000000000000000000000000000000000000000000000000000000000000000000000000000000000000000000000000000000000000000000000000000000000000000000000000000000000000000000000000000000000000
310
00000000000000000000000000000000000000000000000000000000000000000000000000000000000000000000000000000000000000000000000000000000000000000000000000000000000000000000000000000000000000000000000000000000000000000000000000000000000000000000000000000000000000
310
00000000000000000000000000000000000000000000000000000000000000000000000000000000000000000000000000000000000000000000000000000000000000000000000000000000000000000000000000000000000000000000000000000000000000000000000000000000000000000000000000000000000000
310
00000000000000000000000000000000000000000000000000000000000000000000000000000000000000000000000000000000000000000000000000000000000000000000000000000000000000000000000000000000000000000000000000000000000000000000000000000000000000000000000000000000000000
310
00000000000000000000000000000000000000000000000000000000000000000000000000000000000000000000000000000000000000000000000000000000000000000000000000000000000000000000000000000000000000000000000000000000000000000000000000000000000000000000000000000000000000
310
00000000000000000000000000000000000000000000000000000000000000000000000000000000000000000000000000000000000000000000000000000000000000000000000000000000000000000000000000000000000000000000000000000000000000000000000000000000000000000000000000000000000000
310
00000000000000000000000000000000000000000000000000000000000000000000000000000000000000000000000000000000000000000000000000000000000000000000000000000000000000000000000000000000000000000000000000000000000000000000000000000000000000000000000000000000000000
310
00000000000000000000000000000000000000000000000000000000000000000000000000000000000000000000000000000000000000000000000000000000000000000000000000000000000000000000000000000000000000000000000000000000000000000000000000000000000000000000000000000000000000
310
00000000000000000000000000000000000000000000000000000000000000000000000000000000000000000000000000000000000000000000000000000000000000000000000000000000000000000000000000000000000000000000000000000000000000000000000000000000000000000000000000000000000000
310
00000000000000000000000000000000000000000000000000000000000000000000000000000000000000000000000000000000000000000000000000000000000000000000000000000000000000000000000000000000000000000000000000000000000000000000000000000000000000000000000000000000000000
310
00000000000000000000000000000000000000000000000000000000000000000000000000000000000000000000000000000000000000000000000000000000000000000000000000000000000000000000000000000000000000000300000000000000000000000000000000000000000000000000000000000000000000
310
00000000000000000000000000000000000000000000000000000000000000000000000000000000000000000000000000000000000000000000000000000000000000000000000000000000000000000000000000000000000000000000000000000000000000000000000000000000000000000000000000000000000000
310
00000000000000000000000000000000000000000000000000000000000000000000000000000000000000000000000000000000000000000000000000000000000000000000000000000000000000000000000000000000000000000000000000000000000000000000000000000000000000000000000000000000000000
310
00000000000000000000000000000000000000000000000000000000000000000000000000000000000000000000000000000000000000000000000000000000000000000000000000000000000000000000000000000000000000000000000000000000000000000000000000000000000000000000000000000000000000
310
00000000000000000000000000000000000000000000000000000000000000000000000000000000000000000000000000000000000000000000000000000000000000000000000000000000000000000000000000000000000000000000000000000000000000000000000000000000000000000000000000000000000000
310
00000000000000000000000000000000000000000000000000000000000000000000000000000000000000000000000000000000000000000000000000000000000000000000000000000000000000000000000000000000000000000000000000000000000000000000000000000000000000000000000000000000000000
310
00000000000000000000000000000000000000000000000000000000000000000000000000000000000000000000000000000000000000000000000000000000000000000000000000000000000000000000000000000000000000000000000000000000000000000000000000000000000000000000000000000000000000
310
00000000000000000000000000000000000000000000000000000000000000000000000000000000000000000000000000000000000000000000000000000000000000000000000000000000000000000000000000000000000000000000000000000000000000000000000000000000000000000000000000000000000000
310
00000000000000000000000000000000000000000000000000000000000000000000000000000000000000000000000000000000000000000000000000000000000000000000000000000000000000000000000000000000000000000000000000000000000000000000000000000000000000000000000000000000000000
310
00000000000000000000000000000000000000000000000000000000000000000000000000000000000000000000000000000000000000000000000000000000000000000000000000000000000000000000000000000000000000000000000000000000000000000000000000000000000000000000000000000000000000
310
00000000000000000000000000000000000000000000000000000000000000000000000000000000000000000000000000000000000000000000000000000000000000000000000000000000000000000000000000000000000000000000000000000000000000000000000000000000000000000000000000000000000000
310
00000000000000000000000000000000000000000000000000000000000000000000000000000000000000000000000000000000000000000000000000000000000000000000000000000000000000000000000000000000000000000000000000000000000000000000000000000000000000000000000000000000000000
310
00000000000000000000000000000000000000000000000000000000000000000000000000000000000000000000000000000000000000000000000000000000000000000000000000000000000000000000000000000000000000000000000000000000000000000000000000000000000000000000000000000000000000
310
00000000000000000000000000000000000000000000000000000000000000000000000000000000000000000000000000000000000000000000000000000000000000000000000000000000000000000000000000000000000000000000000000000000000000000000000000000000000000000000000000000000000000
310
00000000000000000000000000000000000000000000000000000000000000000000000000000000000000000000000000000000000000000000000000000000000000000000000000000000000000000000000000000000000000000000000000000000000000000000000000000000000000000000000000000000000000
310
00000000000000000000000000000000000000000000000000000000000000000000000000000000000000000000000000000000000000000000000000000000000000000000000000000000000000000000000000000000000000000000000000000000000000000000000000000000000000000000000000000000000000
310
00000000000000000000000000000000000000000000000000000000000000000000000000000000000000000000000000000000000000000000000000000000000000000000000000000000000000000000000000000000000000000000000000000000000000000000000000000000000000000000000000000000000000
310
00000000000000000000000000000000000000000000000000000000000000000000000000000000000000000000000000000000000000000000000000000000000000000000000000000000000000000000000000000000000000000000000000000000000000000000000000000000000000000000000000000000000000
310
00000000000000000000000000000000000000000000000000000000000000000000000000000000000000000000000000000000000000000000000000000000000000000000000000000000000000000000000000000000000000000000000000000000000000000000000000000000000000000000000000000000000000
310
00000000000000000000000000000000000000000000000000000000000000000000000000000000000000000000000000000000000000000000000000000000000000000000000000000000000000000000000000000000000000000000000000000000000000000000000000000000000000000000000000000000000000
310
00000000000000000000000000000000000000000000000000000000000000000000000000000000000000000000000000000000000000000000000000000000000000000000000000000000000000000000000000000000000000000000000000000000000000000000000000000000000000000000000000000000000000
310
00000000000000000000000000000000000000000000000000000000000000000000000000000000000000000000000000000000000000000000000000000000000000000000000000000000000000000000000000000000000000000000000000000000000000000000000000000000000000000000000000000000000000
310
00000000000000000000000000000000000000000000000000000000000000000000000000000000000000000000000000000000000000000000000000000000000000000000000000000000000000000000000000000000000000000000000000000000000000000000000000000000000000000000000000000000000000
310
00000000000000000000000000000000000000000000000000000000000000000000000000000000000000000000000000000000000000000000000000000000000000000000000000000000000000000000000000000000000000000000000000000000000000000000000000000000000000000000000000000000000000
310
00000000000000000000000000000000000000000000000000000000000000000000000000000000000000000000000000000000000000000000000000000000000000000000000000000000000000000000000000000000000000000000000000000000000000000000000000000000000000000000000000000000000000
310
00000000000000000000000000000000000000000000000000000000000000000000000000000000000000000000000000000000000000000000000000000000000000000000000000000000000000000000000000000000000000000000000000000000000000000000000000000000000000000000000000000000000000
310
00000000000000000000000000000000000000000000000000000000000000000000000000000000000000000000000003000000000000000000000000000000000000000000000000000000000000000000000000000000000000000000000000000000000000000000000000000000000000000000000000000000000000
310
00000000000000000000000000000000000000000000000000000000000000000000000000000000000000000000000000000000000000000000000000000000000000000000000000000000000000000000000000000000000000000000000000000007070007000000000000000000000000000000000000000000000000
310
00000000000000000000000000000000000000000000000000000000000000000000000000000000000000000000000000000000000000000000000000000000000000000000000000000000000000000000000000000000000000000000000000000000000000000000000000000000000000000000000000000000000000
310
00000000000000000000000000000000000000000000000707000000000700000000000000000000000000000000000000000000000000000000000000000000000000000000000000000000000000000000000000000000000000000000000000000000000000000000000000000000000000000000000000000000000000
310
00000000000000000000000000000000000000000000000000000000000000000000000000000000000000000000000000000000000000000000000000000000000000000000000000000707000000000000000700000000000000000000000000000000000000000000000000000000000000000000000000000000000000
310
00000000000000000000000000000000000000000000000000000000000000000000000000000000000000000000000000000000000000000000000000000000000000000000000000000000000000000000000000000000000000000000000000000000000000000000000000000000000000000000000000000000000707
310
00000000000000000000070000000000000000000000000000000000000000000000000000000000000000000000000000000000000000000000000000000000000000000000000000000000000000000000000000000000000000000000000000000000000000000000000000000000000000000000000000000000000000
310
00000000000000000000000000000000000000000000000000000000000000000000000000000000000000000000000000070700000000000000000000000000070000000000000000000000000000000000000000000000000000000000000000000000000000000000000000000000000000000000000000000000000000
310
00000000000000000000000000000000000000000000000000000000000000000000000000000000000000000000000000000000000000000000000000000000000000000000000000000000000000000000000000000003070707070707070707070707070300000000000000000000000000070700070000000000000000
310
00000000000000000000000000000000000000000000000000000000000000000000000000000000000000000000000000000000000000000000000000000000000000000000000000000000000000000000000000000000000000000000000000000000000000000000000000000000000000000000000000000000000000
310
00000000000000000000000000070000000000000000000000000007000000000000000000000000070000000707000000000000000000000000000000000000000000000000000000000000000000000000000000000000000000000000000000000000000000000000000000000000000000000000000000000000000000
310
00000000000000000000000000000000000000000000000000000000000000000000000000000000000000000000000000000000000000000000000000000000000007000000000000000000000000000700000000000000000000000700000007070007000000000000000000000000000000000000000000000000000000
310
00000000000000000000000000000000000000000000000000000000000000000000000000000000000000000000000000000000000000000000000000000000000000000000000000000000000000000000000000000000000000000000000000000000000000000000000000000000000000000000070000000000000000
310
00000000000000070000000000000000070700000007070000000700000000000000000000000000000000000000000000000000000000000000000000000000000000000000000000000000000000000000000000000000000000000000000000000000000000000000000000000000000000000000000000000000000000
310
00000000000000000000000000000000000000000000000000000000000000000000000000000000000000000700000000000000000000000000000007000000000000070700000007070000000000000300000000000000000000000000000000000000000000000000000000000000000000000000000000000000000000
310
00000000000000000000000000000000000000000000000000000000000000000000000000000000000000000000000000000000000000000000000000000000000000000000000000000000000000000000000000000000000000000000000000070000000000000000000000000000000700000000070700000000070700
310
00000000070700000000000000000000000000000000000000000000000000000000000000000000000000000000000000000000000000000000000000000000000000000000000000000000000000000000000000000000000000000000000000000000000000000000000000000000000000000000000000000000000000
310
00000000000000000000000000000000000000000000000700000000000000000000000000000007000707070000000007070000000000070700000000000000000000000000000000000000000000000000000000000000000000000000000000000000000000000000000000000000000000000000000000000000000000
310
00000000000000000000000000000000000000000000000000000000000000000000000000000000000000000000000000000000000000000000000000000000000000000000000000000007070707070000000000000000000707070707070000000707070000000000070700000000000000000000000000000000000000
310
00000000000000000000000000000000000000000000000000000000000000000000000000000000000000000000000000000000000000000000000000000000000000000000000000000000000000000000000000000000000000000000000000000000000000000000000000000000000000000000000000000000000000
310
00070000070707070707070703070700000000070007070707000000000007070000000000000000000000000000000000000000000000000000000000000000000000000000000000000000000000000000000000000000000000000000000000000000000000000000000000000000000000000000000000000000000000
310
00000000000000000000000000000000000000000000000000000000000000000000000000000000000000000000000000000000000007000000000707070707070707070707070707070707000000000000070000000000000000000000000000000000000000000000000000000000000000000000000000000000000000
310
00000000000000000000000000000000000000000000000000000000000000000000000000000000000000000000000000000000000000000000000000000000000000000000000000000000000000000000000000000000000000000000000000000000000000000000000700000000000000070707070707070707070707
310
00000000000007070000000000000000000000000000000000000000000000000000000000000000000000000000000000000000000000000000000000000000000000000000000000000000000000000000000000000000000000000000000000000000000000000000000000000000000000000000000000000000000000
310
00000000000000000000000000000000000000000000000000000000000000000007000000000000000000000000000000000007000000000007070000000000000000000000000000000000000000000000000000000000000000000000000000000000000000000000000000000000000000000000000000000000000000
310
00000000000000000000000000000000000000000000000000000000000000000000000000000000000000000000000000000000000000000000000000000000000000000000000000000000000000000000000000070000000000020200000000000000000000000007000007070000000000000000000000000000000000
310
00000000000000000000000000000000000000000000000000000000000000000000000000000000000000000000000000000000000000000000000000000000000000000000000000000000000000000000000000000000000000000000000000000000000000000000000000000000000000000000000000000000000000
310
00000000000000000000000700000000000202020202020202020202020000070707000000000000000000000000000000000000000000000000000000000000000000000000000000000000000000000000000000000000000000000000000000000000000000000000000000000000000000000000000000000000000000
310
00000000000000000000000000000000000000000000000000000000000000000000000000000000000000000000000000000000000000000000000000000000030707070707020207070702020207070202070703000000000000000000000000000000000000000000000000000000000000000000000000000000000000
310
00000000000000000000000000000000000000000000000000000000000000000000000000000000000000000000000000000000000000000000000000000000000000000000000000000000000000000000000000000000000000000000000000000000000000000000000000000000000000000000000000000000000000
310
00000000000000000000000000000000000000000000000000000000000000000000000000000000000000000000000000000000000000000000000000000000000000000000000000000000000000000000000000000000000000000000000000000000000000000000000000000000000000000000000000000000000000
310
00000000000000000000000000000000000000000000000000000000000000000000000000000000000000000000000000000000000000000000000000000000000000000000000000000000000000000000000000000000000000000000000000000000000000000000000000000000000000000000000000000000000000
310
00000000000000000000000000000000000000000000000000000000000000000000000000000000000000000000000000000000000000000000000000000000000000000000000000000000000000000000000000000000000000000000000000000000000000000000000000000000000000000000000000000000000000
310
00000000000000000000000000000000000000000000000000000000000000000000000000000000000000000000000000000000000000000000000000000000000000000000000000000000000000000000000000000000000000000000000000000000000000000000000000000000000000000000000000000000000000
310
00000000000000000000000000000000000000000000000000000000000000000000000000000000000000000000000000000000000000000000000000000000000000000000000000000000000000000000000000000000000000000000000000000000000000000000000000000000000000000000000000000000000000
310
00000000000000000000000000000000000000000000000000000000000000000000000000000000000000000000000000000000000000000000000000000000000000000000000000000000000000000000000000000000000000000000000000000000000000000000000000000000000000000000000000000000000000
310
00000000000000000000000000000000000000000000000000000000000000000000000000000000000000000000000000000000000000000000000000000000000000000000000000000000000000000000000000000000000000000000000000000000000000000000000000000000000000000000000000000000000000
310
00000000000000000000000000000000000000000000000000000000000000000000000000000000000000000000000000000000000000000000000000000000000000000000000000000000000000000000000000000000000000000000000000000000000000000000000000000000000000000000000000000000000000
310
00000000000000000000000000000000000000000000000000000000000000000000000000000000000000000000000000000000000000000000000000000000000000000000000000000000000000000000000000000000000000000000000000000000000000000000000000000000000000000000000000000000000000
310
00000000000000000000000000000000000000000000000000000000000000000000000000000000000000000000000000000000000000000000000000000000000000000000000000000000000000000000000000000000000000000000000000000000000000000000000000000000000000000000000000000000000000
310
00000000000000000000000000000000000000000000000000000000000000000000000000000000000000000000000000000000000000000000000000000000000000000000000000000000000000000000000000000000000000000000000000000000000000000000000000000000000000000000000000000000000000
310
00000000000000000000000000000000000000000000000000000000000000000000000000000000000000000000000000000000000000000000000000000000000000000000000000000000000000000000000000000000000000000000000000000000000000000000000000000000000000000000000000000000000000
310
00000000000000000000000000000000000000000000000000000000000000000000000000000000000000000000000000000000000000000000000000000000000000000000000000000000000000000000000000000000000000000000000000000000000000000000000000000000000000000000000000000000000000
310
00000000000000000000000000000000000000000000000000000000000000000000000000000000000000000000000000000000000000000000000000000000000000000000000000000000000000000000000000000000000000000000000000000000000000000000000000000000000000000000000000000000000000
310
00000000000000000000000000000000000000000000000000000000000000000000000000000000000000000000000000000000000000000000000000000000000000000000000000000000000000000000000000000000000000000000000000000000000000000000000000000000000000000000000000000000000000
310
00000000000000000000000000000000000000000000000000000000000000000000000000000000000000000000000000000000000000000000000000000000000000000000000000000000000000000000000000000000000000000000000000000000000000000000000000000000000000000000000000000000000000
310
00000000000000000000000000000000000000000000000000000000000000000000000000000000000000000000000000000000000000000000000000000000000000000000000000000000000000000000000000000000000000000000000000000000000000000000000000000000000000000000000000000000000000
310
00000000000000000000000000000000000000000000000000000000000000000000000000000000000000000000000000000000000000000000000000000000000000000000000000000000000000000000000000000000000000000000000000000000000000000000000000000000000000000000000000000000000000
310
00000000000000000000000000000000000000000000000000000000000000000000000000000000000000000000000000000000000000000000000000000000000000000000000000000000000000000000000000000000000000000000000000000000000000000000000000000000000000000000000000000000000000
310
00000000000000000000000000000000000000000000000000000000000000000000000000000000000000000000000000000000000000000000000000000000000000000000000000000000000000000000000000000000000000000000000000000000000000000000000000000000000000000000000000000000000000
310
00000000000000000000000000000000000000000000000000000000000000000000000000000000000000000000000000000000000000000000000000000000000000000000000000000000000000000000000000000000000000000000000000000000000000000000000000000000000000000000000000000000000000
310
00000000000000000000000000000000000000000000000000000000000000000000000000000000000000000000000000000000000000000000000000000000000000000000000000000000000000000000000000000000000000000000000000000000000000000000000000000000000000000000000000000000000000
310
00000000000000000000000000000000000000000000000000000000000000000000000000000000000000000000000000000000000000000000000000000000000000000000000000000000000000000000000000000000000000000000000000000000000000000000000000000000000000000000000000000000000000
310
00000000000000000000000000000000000000000000000000000000000000000000000000000000000000000000000000000000000000000000000000000000000000000000000000000000000000000000000000000000000000000000000000000000000000000000000000000000000000000000000000000000000000
310
00000000000000000000000000000000000000000000000000000000000000000000000000000000000000000000000000000000000000000000000000000000000000000000000000000000000000000000000000000000000000000000000000000000000000000000000000000000000000000000000000000000000000
310
00000000000000000000000000000000000000000000000000000000000000000000000000000000000000000000000000000000000000000000000000000000000000000000000000000000000000000000000000000000000000000000000000000000000000000000000000000000000000000000000000000000000000
310
00000000000000000000000000000000000000000000000000000000000000000000000000000000000000000000000000000000000000000000000000000000000000000000000000000000000000000000000000000000000000000000000000000000000000000000000000000000000000000000000000000000000000
310
00000000000000000000000000000000000000000000000000000000000000000000000000000000000000000000000000000000000000000000000000000000000000000000000000000000000000000000000000000000000000000000000000000000000000000000000000000000000000000000000000000000000000
310
00000000000000000000000000000000000000000000000000000000000000000000000000000000000000000000000000000000000000000000000000000000000000000000000000000000000000000000000000000000000000000000000000000000000000000000000000000000000000000000000000000000000000
310
00000000000000000000000000000000000000000000000000000000000000000000000000000000000000000000000000000000000000000000000000000000000000000000000000000000000000000000000000000000000000000000000000000000000000000000000000000000000000000000000000000000000000
310
00000000000000000000000000000000000000000000000000000000000000000000000000000000000000000000000000000000000000000000000000000000000000000000000000000000000000000000000000000000000000000000000000000000000000000000000000000000000000000000000000000000000000
310
000000000000000000000000000000000000000000000000000000000000000000000000000000000000000000000000000000000000000000000000000000000000000000000000000000000000000000000000000000000000000000000000000000000000000000000000
  0
ENDSEC
  0
EOF
